.
Авторизация | Регистрация
» » Застава в горах (1953) SATRip от New-Team скачать торрент бесплатно




    Застава в горах (1953) SATRip от New-Team скачать торрент бесплатно

    Опубликовал: Админ | Дата: 20-01-2016, 05:01 | Просмотров: 98



    Снималось в: СССР
    Создали в: МОСФИЛЬМ
    Категория жанра: приключения
    Создали в: 1953
    Время просмотра: 01: 36: 55
    Перевод текста: Не требуется
    Субтитры подготовлены: нет
    Оригинальная аудиодорожка: русский
    Главный режиссер: Константин Юдин

    Актеры

    Владлен Давыдов, Марина Кузнецова, Елена Шатрова, Сергей Гурзо (старший), Станислав Чекан, Аркадий Щербаков, Александр Суснин, Михаил Майоров, Борис Попов, Лев Лобов, Мухаммеджан Касымов, Владимир Белокуров, Олег Солюс, Алексей Краснопольский, Георгий Черноволенко...
    Полный список актёров
    Описание:
    Из Москвы на погранзаставу приезжает старший лейтенант Лунин и назначается заместителем начальника. Герой быстро включается в боевую жизнь, а тем временем банда Исмаил-бека, оплачиваемая иностранной разведкой, активизирует свои действия....



    Источник: DVB
    Качество фильма видео: SATRip
    Тип видео видео: AVI
    Информация о видео: 576x432 (4: 3), 25 fps, XviD ~ 935 kbps avg, 0.150 bit/pixel
    Информация о звуке: 48 kHz, MP3 2.0, 128 kbps
    Раздача от:
    MediaInfo

    Общее
    Полное имя : Zastava.v.gorah.1953.SATRip-745_New-team_by_AVP_Studio.avi
    Формат : AVI
    Формат/Информация : Audio Video Interleave
    Размер файла : 744 Мбайт
    Продолжительность : 1 ч. 36 м.
    Общий поток : 1073 Кбит/сек
    Программа кодирования : VirtualDubMod 1.5.10.3 | www.virtualdub-fr.org || (build 2550/release)
    Библиотека кодирования : VirtualDubMod build 2550/release
    Видео
    Идентификатор : 0
    Формат : MPEG-4 Visual
    Профиль формата : Advanced Simple@L5
    Параметр BVOP формата : 1
    Параметр QPel формата : Нет
    Параметр GMC формата : Без точки перехода
    Параметр матрицы формата : Выборочная
    Идентификатор кодека : XVID
    Идентификатор кодека/Подсказка : XviD
    Продолжительность : 1 ч. 36 м.
    Битрейт : 935 Кбит/сек
    Ширина : 576 пикселей
    Высота : 432 пикселя
    Соотношение сторон : 4: 3
    Частота кадров : 25, 000 кадров/сек
    Цветовое пространство : YUV
    Субдискретизация насыщенности : 4: 2: 0
    Битовая глубина : 8 бит
    Тип развёртки : Прогрессивная
    Метод сжатия : С потерями
    Бит/(Пиксели*Кадры) : 0.150
    Размер потока : 648 Мбайт (87%)
    Библиотека кодирования : XviD 1.2.1 (UTC 2008-12-04)
    Аудио
    Идентификатор : 1
    Формат : MPEG Audio
    Версия формата : Version 1
    Профиль формата : Layer 3
    Идентификатор кодека : 55
    Идентификатор кодека/Подсказка : MP3
    Продолжительность : 1 ч. 36 м.
    Вид битрейта : Постоянный
    Битрейт : 128 Кбит/сек
    Каналы : 2 канала
    Частота : 48, 0 КГц
    Метод сжатия : С потерями
    Размер потока : 88, 7 Мбайт (12%)
    Выравнивание : Соединение по промежуткам
    Продолжительность промежутка : 40 мс. (1, 00 видеокадр)
    Время предзагрузки промежутка : 504 мс.
    Библиотека кодирования : LAME3.99r
    Залил: AVPStudio

    Онлайн видео Застава в горах (1953) SATRip от New


    Размер скачиваемого торрента: 743.84 MB (779970560 Bytes)


    Застава в горах (1953) SATRip от New-Team
    загрузка...
    Рейтинг →
     (голосов: 1, оценка 3/5, голосовать можно 1 раз )

    Другие торренты по теме:



      Комментарии (0):

      Информация

      Информация

        Посетители, находящиеся в группе Гости, не могут оставлять комментарии в данной новости.

        ↓ Меню



        ↓ Опрос

        А Вы добавили сайт в закладки?
        Да
        Не


        Top 10 за неделю (Фильмы)