.
Авторизация | Регистрация
» » В дальнем плавании (1945) DVDRip от New-Team скачать торрент бесплатно




    В дальнем плавании (1945) DVDRip от New-Team скачать торрент бесплатно

    Опубликовал: Админ | Дата: 21-01-2016, 05:00 | Просмотров: 113



    Снималось в: СССР
    Создали в: Киевская киностудия
    Категория жанра: приключения
    Создали в: 1944
    Время просмотра: 01: 26: 37
    Перевод текста: Не требуется
    Субтитры подготовлены: нет
    Оригинальная аудиодорожка: русский
    Главный режиссер: Владимир Браун

    Актеры

    Борис Дмоховский, Михаил Высоцкий, Михаил Романов, Владимир Шишкин, Сергей Петров, Борис Карлаш-Вербицкий, Александр Кузнецов, Андрей Сова, Владимир Освецимский, Аркадий Аркадьев...
    Описание:
    Уходит в рейс парусный корвет Витязь, команде которого предстоит выдержать суровые испытания. Не складываются отношения у матросов с заменившим старшего офицера тупым и бездушным бароном фон Бергом. Своим поведением он вызывает ненависть всего экипажа, которая перерастает в бунт, когда он отдает приказ утопить любимца всей команды — маленького щенка. Все это, а также шторм в Тихом океане и другие опасные приключения еще больше сплачивают людей и делают их еще сильнее и отважнее.



    Источник: DVD5 R5
    Качество фильма видео: DVDRip
    Тип видео видео: AVI
    Информация о видео: 640x480 (4: 3), 25 fps, XviD ~ 1064 kbps avg, 0.139 bit/pixel
    Информация о звуке: 48 kHz, MP3 2.0, 128 kbps
    Раздача от:
    MediaInfo

    Общее
    Полное имя : V.dalnem.plavanii.1945.DVDRip-745_New-team_by_AVP_Studio.avi
    Формат : AVI
    Формат/Информация : Audio Video Interleave
    Размер файла : 745 Мбайт
    Продолжительность : 1 ч. 26 м.
    Общий поток : 1202 Кбит/сек
    Программа кодирования : VirtualDubModRus 1.5.10.2 (build 2542/release)
    Библиотека кодирования : VirtualDubMod build 2542/release
    Видео
    Идентификатор : 0
    Формат : MPEG-4 Visual
    Профиль формата : Advanced Simple@L5
    Параметр BVOP формата : 1
    Параметр QPel формата : Нет
    Параметр GMC формата : Без точки перехода
    Параметр матрицы формата : Выборочная
    Идентификатор кодека : XVID
    Идентификатор кодека/Подсказка : XviD
    Продолжительность : 1 ч. 26 м.
    Битрейт : 1064 Кбит/сек
    Ширина : 640 пикселей
    Высота : 480 пикселей
    Соотношение сторон : 4: 3
    Частота кадров : 25, 000 кадров/сек
    Цветовое пространство : YUV
    Субдискретизация насыщенности : 4: 2: 0
    Битовая глубина : 8 бит
    Тип развёртки : Прогрессивная
    Метод сжатия : С потерями
    Бит/(Пиксели*Кадры) : 0.139
    Размер потока : 659 Мбайт (89%)
    Библиотека кодирования : XviD 73
    Аудио
    Идентификатор : 1
    Формат : MPEG Audio
    Версия формата : Version 1
    Профиль формата : Layer 3
    Идентификатор кодека : 55
    Идентификатор кодека/Подсказка : MP3
    Продолжительность : 1 ч. 26 м.
    Вид битрейта : Постоянный
    Битрейт : 128 Кбит/сек
    Каналы : 2 канала
    Частота : 48, 0 КГц
    Метод сжатия : С потерями
    Размер потока : 79, 3 Мбайт (11%)
    Выравнивание : Соединение по промежуткам
    Продолжительность промежутка : 40 мс. (1, 00 видеокадр)
    Время предзагрузки промежутка : 504 мс.
    Библиотека кодирования : LAME3.99r
    Залил: AVPStudio

    Онлайн видео В дальнем плавании (1945) DVDRip от New


    Размер скачиваемого торрента: 744.55 MB (780722176 Bytes)


    В дальнем плавании (1945) DVDRip от New-Team
    загрузка...
    Рейтинг →
     (голосов: 1, оценка 4/5, голосовать можно 1 раз )

    Другие торренты по теме:



      Комментарии (0):

      Информация

      Информация

        Посетители, находящиеся в группе Гости, не могут оставлять комментарии в данной новости.

        ↓ Меню



        ↓ Опрос

        А Вы добавили сайт в закладки?
        Да
        Не


        Top 10 за неделю (Фильмы)