.
Авторизация | Регистрация
» » Последний охотник на ведьм / The Last Witch Hunter (2015) HDRip | КПК | iTunes скачать торрент бесплатно




    Последний охотник на ведьм / The Last Witch Hunter (2015) HDRip | КПК | iTunes скачать торрент бесплатно

    Опубликовал: Админ | Дата: 22-01-2016, 05:01 | Просмотров: 155


    • Последний охотник на ведьм/The Last Witch Hunter •
    ? Снималось в: США, Китай, Канада
    ? Создали в: Aperture Entertainment, Atmosphere Entertainment MM, Goldmann Pictures, NeoReel, One Race Films, Summit Entertainment, TIK Films
    ? Создали в: 2015
    ? Категория жанра: фэнтези, боевик, приключения
    ? Главный режиссёр: Брек Эйснер
    ?
    Актеры
    Вин Дизель, Роуз Лесли, Элайджа Вуд, Оулавюр Дарри Оулафссон, Рина Оуэн, Юли Энгельбрехт, Майкл Кейн, Джозеф Гилган, Исаак Де Банколе, Майкл Халсли

    ? Перевод текста: Профессиональный (полное дублирование) iTunes


    Описание фильма
    Современный мир скрывает множество секретов, но самым удивительным из них является то, что ведьмы до сих пор живут среди нас. Это злобные сверхъестественные существа, чья цель — наслать на мир смертоносную чуму. Армии охотников на ведьм сражались с ними на протяжении многих веков.

    В наши дни остался всего лишь один охотник на ведьм, Колдер, которому однажды удалось убить всемогущую королеву ведьм. Но Колдер еще не знает, что королева воскресла и жаждет отомстить своему убийце…




    ? Качество фильма: HDRip
    ? Время просмотра: 01: 46: 34

    ? Тип видео: MP4
    ? Информация о видео кодек: H.264
    ? Информация о звуке кодек: AAC-LC
    ? Свойства видео: 640x268 (2: 39: 1), 23.976 fps, 500 kbps (0.122 bit/pixel)
    ? Свойства аудио: 48.0 KHz, 2 ch, 128 kbps
    MediaInfo
    General
    Complete name : The.Last.Witch.Hunter.2015.HDRip.mp4
    Format : MPEG-4
    Format profile : Base Media
    Codec ID : isom (isom/avc1/iso6)
    File size : 481 MiB
    Duration : 1h 46mn
    Overall bit rate mode : Variable
    Overall bit rate : 632 Kbps
    Encoded date : UTC 2016-01-21 15: 01: 03
    Tagged date : UTC 2016-01-21 15: 01: 03

    Video
    ID : 1
    Format : AVC
    Format/Info : Advanced Video Codec
    Format profile : High@L4.1
    Format settings, CABAC : Yes
    Format settings, ReFrames : 9 frames
    Codec ID : avc1
    Codec ID/Info : Advanced Video Coding
    Duration : 1h 46mn
    Bit rate : 500 Kbps
    Maximum bit rate : 2 220 Kbps
    Width : 640 pixels
    Height : 268 pixels
    Display aspect ratio : 2.40: 1
    Frame rate mode : Constant
    Frame rate : 23.976 (24000/1001) fps
    Color space : YUV
    Chroma subsampling : 4: 2: 0
    Bit depth : 8 bits
    Scan type : Progressive
    Bits/(Pixel*Frame) : 0.122
    Stream size : 381 MiB (79%)
    Title : 264@GPAC0.5.2-DEV-rev248-g39d5978-master
    Writing library : x264 core 146 r2538 121396c
    Encoding settings : cabac=1/ref=9/deblock=1: -3: -3/analyse=0x3: 0x113/me=umh/subme=11/psy=1/psy_rd=1.00: 0.00/mixed_ref=1/me_range=32/chroma_me=1/trellis=2/8x8dct=1/cqm=0/deadzone=21, 11/fast_pskip=0/chroma_qp_offset=-2/threads=6/lookahead_threads=1/sliced_threads=0/nr=0/decimate=0/interlaced=0/bluray_compat=0/constrained_intra=0/bframes=9/b_pyramid=2/b_adapt=2/b_bias=0/direct=3/weightb=1/open_gop=0/weightp=2/keyint=240/keyint_min=23/scenecut=40/intra_refresh=0/rc=2pass/mbtree=0/bitrate=500/ratetol=1.0/qcomp=0.60/qpmin=0/qpmax=69/qpstep=4/cplxblur=20.0/qblur=0.5/ip_ratio=1.40/pb_ratio=1.30/aq=1: 1.00
    Encoded date : UTC 2016-01-21 15: 01: 03
    Tagged date : UTC 2016-01-21 15: 02: 08

    Audio
    ID : 2
    Format : AAC
    Format/Info : Advanced Audio Codec
    Format profile : LC
    Codec ID : 40
    Duration : 1h 46mn
    Bit rate mode : Variable
    Bit rate : 128 Kbps
    Maximum bit rate : 185 Kbps
    Channel(s) : 2 channels
    Channel positions : Front: L R
    Sampling rate : 48.0 KHz
    Frame rate : 46.875 fps (1024 spf)
    Compression mode : Lossy
    Stream size : 97.5 MiB (20%)
    Encoded date : UTC 2016-01-21 11: 28: 20
    Tagged date : UTC 2016-01-21 15: 02: 08
    Скриншоты



    Залил: ProT1gR

    Онлайн видео Последний охотник на ведьм


    Размер скачиваемого торрента: 481.45 MB (504836703 Bytes)

    Последний охотник на ведьм/The Last Witch Hunter (2015) HDRip | КПК | iTunes
    загрузка...
    Рейтинг →
     (голосов: 1, оценка 3/5, голосовать можно 1 раз )

    Другие торренты по теме:

  • Последний охотник / Hunter Prey (2010) HDRip-AVC от ExKinoRay торрент скачать бесплатно
  • Последний охотник на ведьм / The Last Witch Hunter (2015) WEBRip 1080p | Трейлер скачать торрент бесплатно
  • Последний охотник на ведьм / The Last Witch Hunter (2015) WEBRip 1080p Трейлер | L скачать торрент бесплатно
  • Последний охотник на ведьм (2015) дублированный скачать торрент бесплатно
  • Последний охотник на ведьм / The Last Witch Hunter (2015) CAMRip скачать торрент бесплатно
  • Последний охотник на ведьм / The Last Witch Hunter (2015) WEB-DL 720p | iTunes скачать торрент бесплатно
  • Последний охотник на ведьм / The Last Witch Hunter (2015) WEB-DLRip-AVC от ExKinoRay | iTunes скачать торрент бесплатно
  • Последний охотник на ведьм / The Last Witch Hunter (2015) BDRip от AleksSin | D | iTunes скачать торрент бесплатно


    • Комментарии (0):

      Информация

      Информация

        Посетители, находящиеся в группе Гости, не могут оставлять комментарии в данной новости.

        ↓ Меню



        ↓ Опрос

        А Вы добавили сайт в закладки?
        Да
        Не


        Top 10 за неделю (Фильмы)