.
Авторизация | Регистрация
» » Лунная афера / Moonwalkers (2015) WEB-DL 720p | L скачать торрент бесплатно




    Лунная афера / Moonwalkers (2015) WEB-DL 720p | L скачать торрент бесплатно

    Опубликовал: Админ | Дата: 24-01-2016, 05:01 | Просмотров: 6765



    Детально о кино
    Русское название: Лунная афера
    Русское название в мировом прокате: Moonwalkers
    Создали в: 2015
    Категория жанра: комедия
    Главный режиссер: Антуан Бардо-Жаке

    Актеры
    Руперт Гринт, Рон Перлман, Роберт Шиэн, Стивен Кэмпбелл Мур, Том Ауденарт, Кевин Бишоп, Эрик Лёмпарт, Эрика Сэйнт, Джей Бенедикт, Джон Фландерс

    Сюжет фильма
    Тайный агент ЦРУ отправляется в Лондон, чтобы разыскать там Стэнли Кубрика и заказать ему фильм про высадку астронавтов на лунную поверхность на случай провала реальной миссии. Но вместо Кубрика агент нарывается на афериста Джонни, который устраивает съемки сверхсекретного видео на стремной студии порнофильмов, где невесомость достигается благодаря крепкому косяку…


    Снималось в: Франция/Nexus Factory, Partizan Films, Potemkino, Schmooze
    Время просмотра: 01: 36: 22
    Тип перевода: Любительское (многоголосое) Parovoz Production
    Примечание: Релиз без рекламы.

    Файл
    Тип видео: MKV
    Качество фильма: WEB-DL 720p
    Информация о видео: MPEG-4 AVC, 3580 kb/s, 1280x536
    Информация о звуке: Russian: AC3, 192 kb/s (2 ch)/English: AC3, 384 kb/s (6 ch)
    Субтитры: English
    MI

    Format : Matroska
    Format version : Version 2
    File size : 2.80 GiB
    Duration : 1h 36mn
    Overall bit rate : 4 158 Kbps
    Encoded date : UTC 2016-01-24 01: 11: 54
    Writing application : mkvmerge v7.8.0 (;River Man;) 32bit built on Apr 3 2015 12: 11: 22
    Writing library : libebml v1.3.1 + libmatroska v1.4.2
    Video
    ID : 1
    Format : AVC
    Format/Info : Advanced Video Codec
    Format profile : High@L4.1
    Format settings, CABAC : Yes
    Format settings, ReFrames : 4 frames
    Codec ID : V_MPEG4/ISO/AVC
    Duration : 1h 36mn
    Bit rate : 3 580 Kbps
    Width : 1 280 pixels
    Height : 536 pixels
    Display aspect ratio : 2.40: 1
    Frame rate mode : Constant
    Frame rate : 23.976 fps
    Color space : YUV
    Chroma subsampling : 4: 2: 0
    Bit depth : 8 bits
    Scan type : Progressive
    Bits/(Pixel*Frame) : 0.218
    Stream size : 2.36 GiB (84%)
    Writing library : x264 core 142 r2431+42 c69a006 tMod 8-bit@all X86_64
    Encoding settings : cabac=1/ref=3/deblock=1: -3: -3/analyse=0x3: 0x133/me=umh/subme=8/psy=1/fade_compensate=0.00/psy_rd=1.00: 1.00/mixed_ref=1/me_range=48/chroma_me=1/trellis=2/8x8dct=1/cqm=0/deadzone=21, 11/fast_pskip=0/chroma_qp_offset=-4/threads=16/lookahead_threads=2/sliced_threads=0/nr=0/decimate=1/interlaced=0/bluray_compat=0/constrained_intra=0/fgo=0/bframes=3/b_pyramid=2/b_adapt=2/b_bias=0/direct=3/weightb=1/open_gop=0/weightp=2/keyint=240/keyint_min=23/scenecut=40/intra_refresh=0/rc_lookahead=150/rc=2pass/mbtree=1/bitrate=3580/ratetol=1.0/qcomp=0.60/qpmin=0: 0: 0/qpmax=69: 69: 69/qpstep=4/cplxblur=20.0/qblur=0.5/vbv_maxrate=62500/vbv_bufsize=78125/nal_hrd=none/filler=0/ip_ratio=1.20/aq=2: 0.70/aq-sensitivity=10.00/aq-factor=1.00: 1.00: 1.00/aq2=0/aq3=0
    Language : English
    Default : Yes
    Forced : No
    Color range : Limited
    Matrix coefficients : BT.709
    Audio #1
    ID : 2
    Format : AC-3
    Format/Info : Audio Coding 3
    Mode extension : CM (complete main)
    Format settings, Endianness : Big
    Codec ID : A_AC3
    Duration : 1h 36mn
    Bit rate mode : Constant
    Bit rate : 192 Kbps
    Channel(s) : 2 channels
    Channel positions : Front: L R
    Sampling rate : 48.0 KHz
    Bit depth : 16 bits
    Compression mode : Lossy
    Stream size : 132 MiB (5%)
    Language : Russian
    Default : Yes
    Forced : No
    Audio #2
    ID : 3
    Format : AC-3
    Format/Info : Audio Coding 3
    Mode extension : CM (complete main)
    Format settings, Endianness : Big
    Codec ID : A_AC3
    Duration : 1h 36mn
    Bit rate mode : Constant
    Bit rate : 384 Kbps
    Channel(s) : 6 channels
    Channel positions : Front: L C R, Side: L R, LFE
    Sampling rate : 48.0 KHz
    Bit depth : 16 bits
    Compression mode : Lossy
    Stream size : 265 MiB (9%)
    Language : English
    Default : No
    Forced : No
    Text
    ID : 4
    Format : UTF-8
    Codec ID : S_TEXT/UTF8
    Codec ID/Info : UTF-8 Plain Text
    Language : English
    Default : No
    Forced : No
    Скриншоты






    Онлайн видео Лунная афера


    Размер скачиваемого торрента: 2.80 GB (3005127270 Bytes)

    Лунная афера/Moonwalkers (2015) WEB-DL 720p | L
    загрузка...
    Рейтинг →
     (голосов: 1, оценка 3/5, голосовать можно 1 раз )

    Другие торренты по теме:

  • Лунная афера (2015) скачать торрент бесплатно
  • Лунная афера / Moonwalkers (2015) HDRip от torrentfilm | iTunes скачать торрент бесплатно


    • Комментарии (0):

      Информация

      Информация

        Посетители, находящиеся в группе Гости, не могут оставлять комментарии в данной новости.

        ↓ Меню



        ↓ Опрос

        А Вы добавили сайт в закладки?
        Да
        Не


        Top 10 за неделю (Фильмы)