.
Авторизация | Регистрация
Хочешь лучшие торренты? Добавь свой email!
Добавить
» » Секретные материалы: Дилогия / The X Files: Dilogy (1998-2008) HDRip от NNM-CLUB | P, D торрент скачать бесплатно




    Секретные материалы: Дилогия / The X Files: Dilogy (1998-2008) HDRip от NNM-CLUB | P, D торрент скачать бесплатно

    Опубликовал: Админ | Дата: 30-01-2016, 05:01 | Просмотров: 100


    Секретные материалы: Борьба за будущее/The X Files (1998) HDRip

    Создали в: США
    Категория жанра: Фантастика, Триллер, Детектив
    Главный режиссер: Роб Боумен
    Актеры: Дэвид Духовны, Джиллиан Андерсон, Джон Невилл, Уильям Б. Дэвис, Мартин Ландау, Митч Пиледжи, Джеффри ДеМанн, Блайт Дэннер, Терри О`Куинн, Армин Мюллер-Шталь, Лукас Блэк, Кристофер Феннел, Коуди Ньютон, Блейк Стоукс

    Описание фильма

    Даллас, штат Техас. Бомба террориста уничтожает здание. В ходе расследования спецагенты ФБР Фокс Малдер и Дана Скалли сталкиваются с тайным заговором, превосходящим по опасности все, что они до этого встречали. Рискуя собственной жизнью и карьерой, Малдер и Скалли делают все для уничтожения смертельного вируса, способного поразить все живое на Земле и, возможно, имеющего внеземное происхождение. В этой погоне за правдой они выходят на таинственный синдикат, состоящий из могущественных людей, которые не остановятся ни перед чем ради сохранения своих секретов. Люди синдиката преследуют агентов в техасской пещере, штабе ФБР и на секретной базе в Антарктике, хранящей самый главный секрет…

    Время просмотра: 02: 02: 41
    Качество фильма видео: HDRip
    Перевод текста: Многоголосый закадровый (ОРТ)
    Субтитры: Отсутствуют
    Информация о видео: 688x288 (2.39: 1), 23.976 fps, XviD build 73 ~711 kbps avg, 0.15 bit/pixel
    Информация о звуке: 48 kHz, MPEG Layer 3, 2 ch, ~128.00 kbps avg
    Mediainfo:

    Формат : AVI
    Формат/Информация : Audio Video Interleave
    Размер файла : 745 Мбайт
    Продолжительность : 2 ч. 2 м.
    Общий поток : 849 Кбит/сек
    Программа кодирования : VirtualDubMod 1.5.10.3 | www.virtualdub-fr.org || (build 2550/release)
    Библиотека кодирования : VirtualDubMod build 2550/release
    Видео
    Идентификатор : 0
    Формат : MPEG-4 Visual
    Профиль формата : Advanced Simple@L5
    Параметр BVOP формата : 1
    Параметр QPel формата : Нет
    Параметр GMC формата : Без точки перехода
    Параметр матрицы формата : Default (MPEG)
    Идентификатор кодека : XVID
    Идентификатор кодека/Подсказка : XviD
    Продолжительность : 2 ч. 2 м.
    Битрейт : 712 Кбит/сек
    Ширина : 688 пикселей
    Высота : 288 пикселей
    Соотношение сторон : 2, 40: 1
    Частота кадров : 23, 976 кадра/сек
    Цветовое пространство : YUV
    Субдискретизация насыщенности : 4: 2: 0
    Битовая глубина : 8 бит
    Тип развёртки : Прогрессивная
    Метод сжатия : С потерями
    Бит/(Пиксели*Кадры) : 0.150
    Размер потока : 625 Мбайт (84%)
    Библиотека кодирования : XviD 73
    Аудио
    Идентификатор : 1
    Формат : MPEG Audio
    Версия формата : Version 1
    Профиль формата : Layer 3
    Идентификатор кодека : 55
    Идентификатор кодека/Подсказка : MP3
    Продолжительность : 2 ч. 2 м.
    Вид битрейта : Постоянный
    Битрейт : 128 Кбит/сек
    Каналы : 2 канала
    Частота : 48, 0 КГц
    Метод сжатия : С потерями
    Размер потока : 112 Мбайт (15%)
    Выравнивание : Соединение по промежуткам
    Продолжительность промежутка : 42 мс. (1, 00 видеокадр)
    Время предзагрузки промежутка : 504 мс.
    Библиотека кодирования : LAME3.99r
    Настройки программы : -m s -V 4 -q 2 -lowpass 17 -b 128

    Скриншоты:


    Секретные материалы: Хочу верить/The X-Files: I Want to Believe (2008) HDRip Unrated

    Создали в: США
    Категория жанра: Фантастика, Триллер, Приключения
    Главный режиссер: Крис Картер
    Актеры: Дэвид Духовны, Джиллиан Андерсон, Аманда Пит, Билли Коннолли, Иксзибит, Митч Пиледжи, Каллум Кит Ренни, Адам Годли, Алекс Дьякун, Никки Эйкокс, Фагин Вудкок, Марко Никколи, Кэрри Ручински, Спенсер Мэйби, Вероника Хадрава

    Описание фильма

    Пропадает без вести сотрудница ФБР, и последней надеждой её коллег становятся Фокс Малдер и Дана Скалли, бывшие специальные агенты, вынужденно, хотя и по разным причинам, оставившие службу. Единственным человеком, дающим следствию хоть какую-то информацию, является престарелый Джозеф Криссман, в прошлом священник, отбывший наказание за совращение малолетних, который уверяет, что картины совершённых преступлений непроизвольно - по воле Бога - возникают в его сознании.

    Время просмотра: 01: 48: 08
    Качество фильма видео: HDRip
    Перевод текста: Дублированный
    Субтитры: Отсутствуют
    Информация о видео: 688x288 (2.39: 1), 23.976 fps, XviD build 73 ~824 kbps avg, 0.17 bit/pixel
    Информация о звуке: 48 kHz, MPEG Layer 3, 2 ch, ~128.00 kbps avg
    Mediainfo:

    Формат : AVI
    Формат/Информация : Audio Video Interleave
    Размер файла : 744 Мбайт
    Продолжительность : 1 ч. 48 м.
    Общий поток : 962 Кбит/сек
    Программа кодирования : VirtualDubMod 1.5.10.3 | www.virtualdub-fr.org || (build 2550/release)
    Библиотека кодирования : VirtualDubMod build 2550/release
    Видео
    Идентификатор : 0
    Формат : MPEG-4 Visual
    Профиль формата : Advanced Simple@L5
    Параметр BVOP формата : 1
    Параметр QPel формата : Нет
    Параметр GMC формата : Без точки перехода
    Параметр матрицы формата : Default (MPEG)
    Идентификатор кодека : XVID
    Идентификатор кодека/Подсказка : XviD
    Продолжительность : 1 ч. 48 м.
    Битрейт : 825 Кбит/сек
    Ширина : 688 пикселей
    Высота : 288 пикселей
    Соотношение сторон : 2, 40: 1
    Частота кадров : 23, 976 кадра/сек
    Цветовое пространство : YUV
    Субдискретизация насыщенности : 4: 2: 0
    Битовая глубина : 8 бит
    Тип развёртки : Прогрессивная
    Метод сжатия : С потерями
    Бит/(Пиксели*Кадры) : 0.174
    Размер потока : 638 Мбайт (86%)
    Библиотека кодирования : XviD 73
    Аудио
    Идентификатор : 1
    Формат : MPEG Audio
    Версия формата : Version 1
    Профиль формата : Layer 3
    Идентификатор кодека : 55
    Идентификатор кодека/Подсказка : MP3
    Продолжительность : 1 ч. 48 м.
    Вид битрейта : Постоянный
    Битрейт : 128 Кбит/сек
    Каналы : 2 канала
    Частота : 48, 0 КГц
    Метод сжатия : С потерями
    Размер потока : 99, 0 Мбайт (13%)
    Выравнивание : Соединение по промежуткам
    Продолжительность промежутка : 42 мс. (1, 00 видеокадр)
    Время предзагрузки промежутка : 504 мс.
    Библиотека кодирования : LAME3.99r
    Настройки программы : -m s -V 4 -q 2 -lowpass 17 -b 128

    Скриншоты:


    Релиз подготовил: FAGOT100(NNM-CLUB)

    Онлайн видео Секретные материалы: Дилогия


    Размер скачиваемого торрента: 1.45 GB (1561561088 Bytes)

    Секретные материалы: Дилогия/The X Files: Dilogy (1998-2008) HDRip от NNM-CLUB | P, D
    загрузка...
    Рейтинг →
     (голосов: 1, оценка 5/5, голосовать можно 1 раз )

    Другие торренты по теме:

  • Секретные материалы. Заклинание змеи (2012) SATRip
  • Секретные материалы: Хочу верить / The X Files: I Want to Believe (2008) BDRip-AVC от Rulya74 | Режиссерская версия
  • Секретные материалы: Борьба за будущее / The X-files: Fight the future (1998) BDRip от R. G. Jolly Roger
  • OST - Секретные материалы / X-Files (1996 - 2013) MP3
  • Детектив Дрезден: Секретные материалы / Досье Дрездена / The Dresden Files (2007) HDTVRip | P | ТВ3 скачать через торрент бесплатно
  • Секретные материалы / The X-Files (1993-2002) DVDRip-AVC
  • Секретные материалы : Коллекция / The X-Files : Collection (1993-2008) DVDRip от Sanjar NeoJet | КПК скачать через торрент бесплатно
  • Секретные материалы / The X Files (1993-1994) HDTVRip от super12308 | Ren-TV


    • Комментарии (0):

      Информация

      Информация

        Посетители, находящиеся в группе Гости, не могут оставлять комментарии в данной новости.

        ↓ Меню



        ↓ Опрос

        А Вы добавили сайт в закладки?
        Да
        Не


        Top 10 за месяц (Фильмы)