.
Авторизация | Регистрация
» » Флэш / The Flash (2015-2016) WEB-DLRip | КПК | LostFilm скачать торрент бесплатно




    Флэш / The Flash (2015-2016) WEB-DLRip | КПК | LostFilm скачать торрент бесплатно

    Опубликовал: Админ | Дата: 31-01-2016, 18:39 | Просмотров: 91


    • Флэш/The Flash •
    ? Снималось в: США
    ? Создали в: Berlanti Productions, DC Entertainment, Warner Bros. Television
    ? Создали в: 2015-2016
    ? Категория жанра: фантастика, фэнтези, боевик, драма, приключения
    ? Главный режиссёр: Дэвид Наттер
    ?
    Актеры
    Джейк Макдорман, Брэдли Купер, Дженнифер Карпентер, Хилл Харпер, Мэри Элизабет Мастрантонио, Генри Джальярди, Майкл Джеймс Шоу, Тревор Брукс, Джина Диас и др.

    ? Перевод текста: Профессиональный (многоголосый закадровый) от LostFilm


    Описание фильма
    Из-за несчастного случая судмедэксперт Барри Аллен приобретает способность передвигаться с невероятной скоростью. Этот случай делает из него супергероя, которым он всегда мечтал стать…



    ? Качество фильма: WEB-DLRip
    ? Время просмотра: по ~ 00: 43: 00

    ? Тип видео: MP4
    ? Информация о видео кодек: H.264
    ? Информация о звуке кодек: AAC-LC
    ? Свойства видео: 640x360 (16: 9), 23.976 fps, 500-600 kbps (0.109 bit/pixel)
    ? Свойства аудио: 48.0 KHz, 2 ch, 128 kbps
    Mediainfo
    General
    Complete name : The.Flash.S02E01.WEB-DLRip.rus.LostFilm.TV.mp4
    Format : MPEG-4
    Format profile : Base Media
    Codec ID : isom
    File size : 223 MiB
    Duration : 42mn 35s
    Overall bit rate mode : Variable
    Overall bit rate : 732 Kbps
    Encoded date : UTC 2015-11-19 08: 06: 39
    Tagged date : UTC 2015-11-19 08: 06: 39

    Video
    ID : 1
    Format : AVC
    Format/Info : Advanced Video Codec
    Format profile : High@L4.1
    Format settings, CABAC : Yes
    Format settings, ReFrames : 9 frames
    Codec ID : avc1
    Codec ID/Info : Advanced Video Coding
    Duration : 42mn 34s
    Bit rate : 600 Kbps
    Maximum bit rate : 1 989 Kbps
    Width : 640 pixels
    Height : 360 pixels
    Display aspect ratio : 16: 9
    Frame rate mode : Constant
    Frame rate : 23.976 fps
    Color space : YUV
    Chroma subsampling : 4: 2: 0
    Bit depth : 8 bits
    Scan type : Progressive
    Bits/(Pixel*Frame) : 0.109
    Stream size : 183 MiB (82%)
    Title : 264@GPAC0.5.2-DEV-rev248-g39d5978-master
    Writing library : x264 core 146 r2538 121396c
    Encoding settings : cabac=1/ref=9/deblock=1: -3: -3/analyse=0x3: 0x113/me=umh/subme=11/psy=1/psy_rd=1.00: 0.00/mixed_ref=1/me_range=32/chroma_me=1/trellis=2/8x8dct=1/cqm=0/deadzone=21, 11/fast_pskip=0/chroma_qp_offset=-2/threads=6/lookahead_threads=1/sliced_threads=0/nr=0/decimate=0/interlaced=0/bluray_compat=0/constrained_intra=0/bframes=9/b_pyramid=2/b_adapt=2/b_bias=0/direct=3/weightb=1/open_gop=0/weightp=2/keyint=240/keyint_min=23/scenecut=40/intra_refresh=0/rc=2pass/mbtree=0/bitrate=600/ratetol=1.0/qcomp=0.60/qpmin=0/qpmax=69/qpstep=4/cplxblur=20.0/qblur=0.5/ip_ratio=1.40/pb_ratio=1.30/aq=1: 1.00
    Encoded date : UTC 2015-11-19 08: 06: 39
    Tagged date : UTC 2015-11-19 08: 06: 43

    Audio
    ID : 2
    Format : AAC
    Format/Info : Advanced Audio Codec
    Format profile : LC
    Codec ID : 40
    Duration : 42mn 35s
    Bit rate mode : Variable
    Bit rate : 128 Kbps
    Maximum bit rate : 152 Kbps
    Channel(s) : 2 channels
    Channel positions : Front: L R
    Sampling rate : 48.0 KHz
    Compression mode : Lossy
    Stream size : 38.9 MiB (17%)
    Encoded date : UTC 2015-11-19 06: 45: 34
    Tagged date : UTC 2015-11-19 08: 06: 43
    Скриншоты


    Залил: ProT1gR
    Размер скачиваемого торрента: 2.37 GB (2545208423 Bytes)

    Флэш/The Flash (2015-2016) WEB-DLRip | КПК | LostFilm
    загрузка...
    Рейтинг →
     (голосов: 1, оценка 3/5, голосовать можно 1 раз )

    Другие торренты по теме:



      Комментарии (0):

      Информация

      Информация

        Посетители, находящиеся в группе Гости, не могут оставлять комментарии в данной новости.

        ↓ Меню



        ↓ Опрос

        А Вы добавили сайт в закладки?
        Да
        Не


        Top 10 за неделю (Фильмы)