.
Авторизация | Регистрация
Хочешь лучшие торренты? Добавь свой email!
Добавить
» » Срочно выйду замуж (2015) WEB-DLRip от GeneralFilm | iTunes торрент скачать бесплатно




    Срочно выйду замуж (2015) WEB-DLRip от GeneralFilm | iTunes торрент скачать бесплатно

    Опубликовал: Админ | Дата: 1-02-2016, 05:01 | Просмотров: 90



    Детально о кино
    Русское название: Срочно выйду замуж
    Создали в: 2015
    Категория жанра: комедия, мелодрама
    Главный режиссер: Сергей Чекалов

    Актеры
    Юлия Ковальчук, Алексей Чумаков, Екатерина Маликова, Сергей Бурунов, Ольга Прокофьева, Вячеслав Гришечкин, Нонна Гришаева, Анатолий Белый, Алика Смехова, Эвклид Кюрдзидис

    Сюжет фильма
    В центре киноленты – молоденькая журналистка Евгения. Она - трудоголик по своей сущности, амбициозна и умна, всегда достигает поставленных целей. Во многих чертах характера и по своим принципам она не схожа со сверстницами. Евгения считает, что не готова к жизни в браке, а потому не видит смысла в нём. Однако на работе освобождается место главного редактора семейного журнала. Девушка – явная претендентка, но главное условие – она должна выйти замуж, ведь работник подобного заведения как никто иной должен знать все тонкости семейного счастья. Чтобы не лишиться желанной карьеры, Женя идёт на авантюру. В короткие сроки она решается обрести семью и заполучить вакантное место. В этом неловком деле ей находится помощник – Стас, фотограф с большой картотекой холостяков. Однако Женя начинает понимать, что вовсе не расчётлива, а Стас ощущает влюблённость. Фильм радует незамысловатым, но интересным сюжетом, предполагает наличие неординарных ситуаций и позитивный просмотр. Сюжет и отличный актёрский состав приятно удивят зрителя, до выхода картины на экраны осталось совсем немного.
    Снималось в: Россия/Art Pictures Studio, ВайТ Медиа
    Время просмотра: 01: 43: 33
    Перевод текста: Оригинал iTunes
    Файл
    Тип видео: AVI (XviD)
    Качество фильма: WEB-DLRip
    Информация о видео: 656x272 (2, 40: 1), 24 fps, XviD ~810 kbps avg, 0.182 bit/pixel
    Информация о звуке: МР3, 48 kHz, 2 ch, ~128.00 kbps avg
    МедиаИнфо
    Полное имя : Srochno.Vyjdu.zamuzh.2015.WEB-DLRip.by.GeneralFilm.avi
    Формат : AVI
    Формат/Информация : Audio Video Interleave
    Размер файла : 704 Мбайт
    Продолжительность : 1 ч. 43 м.
    Общий поток : 950 Кбит/сек
    Программа кодирования : VirtualDubMod 1.5.10.3 | www.virtualdub-fr.org || (build 2550/release)
    Библиотека кодирования : VirtualDubMod build 2550/release
    Видео
    Идентификатор : 0
    Формат : MPEG-4 Visual
    Профиль формата : Advanced Simple@L5
    Параметр BVOP формата : 1
    Параметр QPel формата : Нет
    Параметр GMC формата : Без точки перехода
    Параметр матрицы формата : Выборочная
    Идентификатор кодека : XVID
    Идентификатор кодека/Подсказка : XviD
    Продолжительность : 1 ч. 43 м.
    Битрейт : 812 Кбит/сек
    Ширина : 656 пикселей
    Высота : 272 пикселя
    Соотношение сторон : 2, 40: 1
    Частота кадров : 25, 000 кадров/сек
    Цветовое пространство : YUV
    Субдискретизация насыщенности : 4: 2: 0
    Битовая глубина : 8 бит
    Тип развёртки : Прогрессивная
    Метод сжатия : С потерями
    Бит/(Пиксели*Кадры) : 0.182
    Размер потока : 602 Мбайт (86%)
    Библиотека кодирования : XviD 73
    Аудио
    Идентификатор : 1
    Формат : MPEG Audio
    Версия формата : Version 1
    Профиль формата : Layer 3
    Идентификатор кодека : 55
    Идентификатор кодека/Подсказка : MP3
    Продолжительность : 1 ч. 43 м.
    Вид битрейта : Постоянный
    Битрейт : 128 Кбит/сек
    Каналы : 2 канала
    Частота : 48, 0 КГц
    Метод сжатия : С потерями
    Размер потока : 94, 8 Мбайт (13%)
    Выравнивание : Соединение по промежуткам
    Продолжительность промежутка : 40 мс. (1, 00 видеокадр)
    Время предзагрузки промежутка : 504 мс.
    Библиотека кодирования : LAME3.99r
    Залил: vsobbol

    Онлайн видео Срочно выйду замуж (2015) WEB-DLRip от GeneralFilm


    Размер скачиваемого торрента: 703.60 MB (737779712 Bytes)


    Срочно выйду замуж (2015) WEB-DLRip от GeneralFilm | iTunes
    загрузка...
    Рейтинг →
     (голосов: 1, оценка 5/5, голосовать можно 1 раз )

    Другие торренты по теме:

  • Срочно выйду замуж (2015) качество WEB-DLRip
  • Срочно выйду замуж (2015) WEB-DLRip | iTunes
  • Срочно выйду замуж (2015)


    • Комментарии (0):

      Информация

      Информация

        Посетители, находящиеся в группе Гости, не могут оставлять комментарии в данной новости.

        ↓ Меню



        ↓ Опрос

        А Вы добавили сайт в закладки?
        Да
        Не


        Top 10 за месяц (Фильмы)