.
Авторизация | Регистрация
Хочешь лучшие торренты? Добавь свой email!
Добавить
» » Богдан Хмельницкий (1941) DVDRip от New-Team торрент скачать бесплатно




    Богдан Хмельницкий (1941) DVDRip от New-Team торрент скачать бесплатно

    Опубликовал: Админ | Дата: 2-02-2016, 05:01 | Просмотров: 104



    Снималось в: СССР
    Создали в: Киевская киностудия
    Категория жанра: драма
    Создали в: 1941
    Время просмотра: 1: 48: 15
    Перевод текста: Не требуется
    Субтитры подготовлены: нет
    Оригинальная аудиодорожка: русский
    Главный режиссер: Игорь Савченко

    Актеры

    Николай Мордвинов, Галина (Гарэн) Жуковская, Никита Ильченко, Борис Безгин, Андрей Иванченко, Виталий Полицеймако, Михаил Жаров, Антон Дунайский, Борис Андреев, Ростислав Ивицкий, Дмитрий Капка, Палладий Белоконь, Павел Пасека, Александр Хвыля, Михаил Высоцкий, Эмма Цесарская, Дмитрий Милютенко, Ганс Клеринг, Василий Зайчиков, Касим Мухутдинов, Генрих Грайф, Александр Давидсон, Самуил Дитлович, С. Самульчик, Б. Свешников, Василий Дашенко, Михаил Белоусов, Павел Киянский, Эмилия Мильтон, Степан Жаворонок...
    Описание:
    1648 год. Украина под гнетом Речи Посполитой. Шляхта бесчинствует, сжигая станицу за станицей. Гетман войска запорожского Богдан Хмельницкий собирает на сечи армию защитников отечества...



    Источник: DVD5 R5
    Качество фильма видео: DVDRip
    Тип видео видео: AVI
    Информация о видео: 576x432 (4: 3), 25 fps, XviD ~ 828 kbps avg, 0.133 bit/pixel
    Информация о звуке: 48 kHz, MP3 2.0, 128 kbps
    Раздача от:
    MediaInfo

    Общее
    Полное имя : Bogdan.Hmelnickiy.1941.DVDRip-745_New-team_by_AVP_Studio.avi
    Формат : AVI
    Формат/Информация : Audio Video Interleave
    Размер файла : 747 Мбайт
    Продолжительность : 1 ч. 48 м.
    Общий поток : 965 Кбит/сек
    Программа кодирования : VirtualDubModRus 1.5.10.2 (build 2542/release)
    Библиотека кодирования : VirtualDubMod build 2542/release
    Видео
    Идентификатор : 0
    Формат : MPEG-4 Visual
    Профиль формата : Advanced Simple@L5
    Параметр BVOP формата : 1
    Параметр QPel формата : Нет
    Параметр GMC формата : Без точки перехода
    Параметр матрицы формата : Выборочная
    Идентификатор кодека : XVID
    Идентификатор кодека/Подсказка : XviD
    Продолжительность : 1 ч. 48 м.
    Битрейт : 828 Кбит/сек
    Ширина : 576 пикселей
    Высота : 432 пикселя
    Соотношение сторон : 4: 3
    Частота кадров : 25, 000 кадров/сек
    Цветовое пространство : YUV
    Субдискретизация насыщенности : 4: 2: 0
    Битовая глубина : 8 бит
    Тип развёртки : Прогрессивная
    Метод сжатия : С потерями
    Бит/(Пиксели*Кадры) : 0.133
    Размер потока : 641 Мбайт (86%)
    Библиотека кодирования : XviD 73
    Аудио
    Идентификатор : 1
    Формат : MPEG Audio
    Версия формата : Version 1
    Профиль формата : Layer 3
    Идентификатор кодека : 55
    Идентификатор кодека/Подсказка : MP3
    Продолжительность : 1 ч. 48 м.
    Вид битрейта : Постоянный
    Битрейт : 128 Кбит/сек
    Каналы : 2 канала
    Частота : 48, 0 КГц
    Метод сжатия : С потерями
    Размер потока : 99, 1 Мбайт (13%)
    Выравнивание : Соединение по промежуткам
    Продолжительность промежутка : 40 мс. (1, 00 видеокадр)
    Время предзагрузки промежутка : 504 мс.
    Библиотека кодирования : LAME3.99r
    Залил: AVPStudio

    Онлайн видео Богдан Хмельницкий (1941) DVDRip от New


    Размер скачиваемого торрента: 747.40 MB (783708160 Bytes)


    Богдан Хмельницкий (1941) DVDRip от New-Team
    загрузка...
    Рейтинг →
     (голосов: 1, оценка 4/5, голосовать можно 1 раз )

    Другие торренты по теме:

  • Богдан Хмельницкий (1941) DVDRip-AVC от New-Team


    • Комментарии (0):

      Информация

      Информация

        Посетители, находящиеся в группе Гости, не могут оставлять комментарии в данной новости.

        ↓ Меню



        ↓ Опрос

        А Вы добавили сайт в закладки?
        Да
        Не


        Top 10 за месяц (Фильмы)