.
Авторизация | Регистрация
» » Трое вышли из леса (1958) SATRip от New-Team скачать торрент бесплатно




    Трое вышли из леса (1958) SATRip от New-Team скачать торрент бесплатно

    Опубликовал: Админ | Дата: 5-02-2016, 05:01 | Просмотров: 91



    Снималось в: СССР
    Создали в: Мосфильм
    Категория жанра: драма, военный
    Создали в: 1958
    Время просмотра: 01: 29: 12
    Перевод текста: не требуется
    Оригинальная аудиодорожка: русский
    Субтитры подготовлены: нет
    Главный режиссер: Константин Воинов

    Актеры
    Лидия Смирнова, Валентин Зубков, Михаил Погоржельский, Борис Смирнов, Евгений Буренков, Зоя Степанова, С. Морозов, Геннадий Горохов, Ольга Сумина...
    Описание:
    После того, как партизаны Юлия, Павел и Сергей ушли на боевое задание, отряд был окружен и уничтожен карателями. Спустя много лет, после окончания Второй мировой войны, следственные органы обнаружили документ, указывающий на то, что отряд был уничтожен по наводке одного из оставшихся в живых…



    Тип релиза: SATRip
    Контейнер: AVI
    Информация о видео: 592x464 (1, 276: 1), 25 fps, XviD ~ 1030 kbps avg, 0.150 bit/pixel
    Информация о звуке: 48 kHz, MP3 2.0, 128 kbps
    Раздача от:
    MediaInfo

    Общее
    Полное имя : Troe.vyshli.iz.lesa.1958.SATRip-745_Youtracker_by_AVP Studio.avi
    Формат : AVI
    Формат/Информация : Audio Video Interleave
    Размер файла : 745 Мбайт
    Продолжительность : 1 ч. 29 м.
    Общий поток : 1168 Кбит/сек
    Программа кодирования : VirtualDubModRus 1.5.10.2 (build 2542/release)
    Библиотека кодирования : VirtualDubMod build 2542/release
    Видео
    Идентификатор : 0
    Формат : MPEG-4 Visual
    Профиль формата : Advanced Simple@L5
    Параметр BVOP формата : 1
    Параметр QPel формата : Нет
    Параметр GMC формата : Без точки перехода
    Параметр матрицы формата : Выборочная
    Идентификатор кодека : XVID
    Идентификатор кодека/Подсказка : XviD
    Продолжительность : 1 ч. 29 м.
    Битрейт : 1030 Кбит/сек
    Ширина : 592 пикселя
    Высота : 464 пикселя
    Соотношение сторон : 1, 276
    Частота кадров : 25, 000 кадров/сек
    Цветовое пространство : YUV
    Субдискретизация насыщенности : 4: 2: 0
    Битовая глубина : 8 бит
    Тип развёртки : Прогрессивная
    Метод сжатия : С потерями
    Бит/(Пиксели*Кадры) : 0.150
    Размер потока : 657 Мбайт (88%)
    Библиотека кодирования : XviD 65
    Аудио
    Идентификатор : 1
    Формат : MPEG Audio
    Версия формата : Version 1
    Профиль формата : Layer 3
    Идентификатор кодека : 55
    Идентификатор кодека/Подсказка : MP3
    Продолжительность : 1 ч. 29 м.
    Вид битрейта : Постоянный
    Битрейт : 128 Кбит/сек
    Каналы : 2 канала
    Частота : 48, 0 КГц
    Метод сжатия : С потерями
    Размер потока : 81, 7 Мбайт (11%)
    Выравнивание : Соединение по промежуткам
    Продолжительность промежутка : 40 мс. (1, 00 видеокадр)
    Время предзагрузки промежутка : 504 мс.
    Библиотека кодирования : L3.99r
    Залил: AVPStudio

    Онлайн видео Трое вышли из леса (1958) SATRip от New


    Размер скачиваемого торрента: 744.89 MB (781076480 Bytes)


    Трое вышли из леса (1958) SATRip от New-Team
    загрузка...
    Рейтинг →
     (голосов: 1, оценка 5/5, голосовать можно 1 раз )

    Другие торренты по теме:

  • Те Трое - MMXII (2012) MP3 от b-kpo торрент скачать бесплатно
  • OST - Троя Soundtrack (2004) MP3 торрент скачать бесплатно
  • Трое из Простоквашино (1978-1984) DVDRip-AVC | КПК торрент скачать бесплатно
  • Трое волхвов / Les rois mages (2001) DVDRip от Киномагия l P торрент скачать бесплатно
  • Трое из Простоквашино (1978, 1980, 1984) BDRip 720p от FREEISLAND торрент скачать бесплатно
  • Трое из простоквашино (1978) BDRip-AVC | iPad торрент скачать бесплатно
  • Трое из Простоквашино Сборник мультфильмов (1977-1981) BDRip 1080p торрент скачать бесплатно
  • Троя - Дискография (2006-2012) MP3 торрент скачать бесплатно


    • Комментарии (0):

      Информация

      Информация

        Посетители, находящиеся в группе Гости, не могут оставлять комментарии в данной новости.

        ↓ Меню



        ↓ Опрос

        А Вы добавили сайт в закладки?
        Да
        Не


        Top 10 за неделю (Фильмы)