.
Авторизация | Регистрация
» » Последний охотник на ведьм / The Last Witch Hunter (2015) HDRip от NNM-CLUB | Дольский скачать торрент бесплатно




    Последний охотник на ведьм / The Last Witch Hunter (2015) HDRip от NNM-CLUB | Дольский скачать торрент бесплатно

    Опубликовал: Админ | Дата: 5-02-2016, 05:01 | Просмотров: 128


    Последний охотник на ведьм/The Last Witch Hunter (2015) HDRip

    Создали в: США, Китай, Канада/Aperture Entertainment, Atmosphere Entertainment MM, Goldmann Pictures, NeoReel, One Race Films, Summit Entertainment, TIK Films
    Категория жанра: Фэнтези, Боевик, Приключения
    Главный режиссер: Брек Эйснер
    Продюсер: Марк Кантон, Вин Дизель, Берни Голдманн
    Актеры: Вин Дизель, Роуз Лесли, Элайджа Вуд, Оулавюр Дарри Оулафссон, Рина Оуэн, Юли Энгельбрехт, Майкл Кейн, Джозеф Гилган, Исаак Де Банколе, Майкл Халсли

    Описание фильма

    Современный мир скрывает множество секретов, но самым удивительным из них является то, что ведьмы до сих пор живут среди нас. Это злобные сверхъестественные существа, чья цель — наслать на мир смертоносную чуму. Армии охотников на ведьм сражались с ними на протяжении многих веков.
    В наши дни остался всего лишь один охотник на ведьм, Колдер, которому однажды удалось убить всемогущую королеву ведьм. Но Колдер еще не знает, что королева воскресла и жаждет отомстить своему убийце…

    Релиз подготовил: K.E.N(NNM-CLUB)
    Время просмотра: 01: 46: 34
    Качество фильма видео: HDRip
    Перевод текста: Авторский (одноголосый, закадровый) А.Дольский
    Субтитры: отсутствуют
    Информация о видео: 720x304 (2.37: 1), 23.976 fps, XviD build 73 ~1513 kbps avg, 0.29 bit/pixel
    Информация о звуке: 48 kHz, AC3 Dolby Digital, 3/2 (L, C, R, l, r) + LFE ch, ~448 kbps
    Mediainfo:
    Формат : AVI
    Формат/Информация : Audio Video Interleave
    Размер файла : 1, 47 Гбайт
    Продолжительность : 1 ч. 46 м.
    Общий поток : 1971 Кбит/сек
    Программа кодирования : VirtualDubMod 1.5.10.3 | www.virtualdub-fr.org || (build 2550/release)
    Библиотека кодирования : VirtualDubMod build 2550/release
    Видео
    Идентификатор : 0
    Формат : MPEG-4 Visual
    Профиль формата : Advanced Simple@L5
    Параметр BVOP формата : 1
    Параметр QPel формата : Нет
    Параметр GMC формата : Без точки перехода
    Параметр матрицы формата : Выборочная
    Идентификатор кодека : XVID
    Идентификатор кодека/Подсказка : XviD
    Продолжительность : 1 ч. 46 м.
    Битрейт : 1514 Кбит/сек
    Ширина : 720 пикселей
    Высота : 304 пикселя
    Соотношение сторон : 2, 35: 1
    Частота кадров : 23, 976 кадра/сек
    Цветовое пространство : YUV
    Субдискретизация насыщенности : 4: 2: 0
    Битовая глубина : 8 бит
    Тип развёртки : Прогрессивная
    Метод сжатия : С потерями
    Бит/(Пиксели*Кадры) : 0.288
    Размер потока : 1, 13 Гбайт (77%)
    Библиотека кодирования : XviD 73
    Аудио
    Идентификатор : 1
    Формат : AC-3
    Формат/Информация : Audio Coding 3
    Расширение режима : CM (complete main)
    Параметр Endianness формата : Big
    Идентификатор кодека : 2000
    Продолжительность : 1 ч. 46 м.
    Вид битрейта : Постоянный
    Битрейт : 448 Кбит/сек
    Каналы : 6 каналов
    Расположение каналов : Front: L C R, Side: L R, LFE
    Частота : 48, 0 КГц
    Битовая глубина : 16 бит
    Метод сжатия : С потерями
    Размер потока : 341 Мбайт (23%)
    Выравнивание : Разделение по промежуткам
    Продолжительность промежутка : 42 мс. (1, 00 видеокадр)
    Время предзагрузки промежутка : 500 мс.

    Скриншоты:


    Онлайн видео Последний охотник на ведьм


    Размер скачиваемого торрента: 1.47 GB (1575583744 Bytes)

    Последний охотник на ведьм/The Last Witch Hunter (2015) HDRip от NNM-CLUB | Дольский
    загрузка...
    Рейтинг →
     (голосов: 1, оценка 3/5, голосовать можно 1 раз )

    Другие торренты по теме:

  • Последний охотник / Hunter Prey (2010) HDRip-AVC от ExKinoRay торрент скачать бесплатно
  • Последний охотник на ведьм / The Last Witch Hunter (2015) WEBRip 1080p | Трейлер скачать торрент бесплатно
  • Последний охотник на ведьм / The Last Witch Hunter (2015) WEBRip 1080p Трейлер | L скачать торрент бесплатно
  • Последний охотник на ведьм (2015) дублированный скачать торрент бесплатно
  • Последний охотник на ведьм / The Last Witch Hunter (2015) CAMRip скачать торрент бесплатно
  • Последний охотник на ведьм / The Last Witch Hunter (2015) WEB-DL 720p | iTunes скачать торрент бесплатно
  • Последний охотник на ведьм / The Last Witch Hunter (2015) WEB-DLRip-AVC от ExKinoRay | iTunes скачать торрент бесплатно
  • Последний охотник на ведьм / The Last Witch Hunter (2015) HDRip | КПК | iTunes скачать торрент бесплатно


    • Комментарии (0):

      Информация

      Информация

        Посетители, находящиеся в группе Гости, не могут оставлять комментарии в данной новости.

        ↓ Меню



        ↓ Опрос

        А Вы добавили сайт в закладки?
        Да
        Не


        Top 10 за неделю (Фильмы)