.
Авторизация | Регистрация
» » 007: СПЕКТР / Spectre (2015) BDRip-AVC | iPad | Чистый звук скачать торрент бесплатно




    007: СПЕКТР / Spectre (2015) BDRip-AVC | iPad | Чистый звук скачать торрент бесплатно

    Опубликовал: Админ | Дата: 5-02-2016, 05:01 | Просмотров: 120


    • 007: СПЕКТР/Spectre •
    ? Снималось в: Великобритания, США
    ? Создали в: B24, Columbia Pictures, Danjaq, Eon Productions Ltd., Metro-Goldwyn-Mayer (MGM), Revolution Sun, Sony
    ? Создали в: 2015
    ? Категория жанра: боевик, триллер, приключения
    ? Главный режиссёр: Сэм Мендес
    ?
    Актеры
    Дэниэл Крэйг, Кристоф Вальц, Леа Сейду, Рэйф Файнс, Моника Беллуччи, Бен Уишоу, Наоми Харрис, Дэйв Батиста, Эндрю Скотт, Рори Киннер


    ? Перевод текста: Дублированный (Чистый звук) + Оригинал
    ? Субтитры подготовлены: Русские форсированные, Английские форсированные, Русские полные


    Описание фильма
    Зашифрованное послание из неизвестного источника выводит Бонда на след зловещей глобальной организации под кодовым названием СПЕКТР, в то время как М пытается спасти секретную разведывательную службу от ликвидации.



    ? Качество фильма: BDRip (исходник BDRemux 1080p)
    ? Тип: SD (576p)
    ? Время просмотра: 02: 28: 16

    ? Тип видео: M4V
    ? Информация о видео кодек: H.264
    ? Информация о звуке кодек: AAC
    ? Свойства видео: 1024x432 (2.40: 1), 23.976 (24000/1001) fps, 3 000 Kbps (1.723 bit/pixel)
    ? Свойства аудио 1: 48.0 KHz, 2 ch, 123 kbps Русский/Дублированный (LINE)
    ? Свойства аудио 2: 48.0 KHz, 2 ch, 155 kbps Английский/Оригинальная дорожка

    ? Субтитры 1: Русские форсированные
    ? Субтитры 2: Английские форсированные
    ? Субтитры 3: Русские полные


    iTunes Meta Tags/MediaInfo
    iTunes Meta Tags:
    Sort Name: Spectre
    XID: Apple: vendor_id: 2015-678552
    contentID: 1042425776
    Copyright: Spectre ©2015 Danjaq, MGM, CPII. Spectre, 007 Gun Logo and related James Bond Trademarks, TM Danjaq. All Rights Reserved.
    Screenwriters: Джон Логан, Нил Пёрвис, Роберт Уэйд
    Producers: Барбара Брокколи, Майкл Дж. Уилсон, Закария Алауи
    Director: Сэм Мендес
    Cast: Дэниэл Крэйг, Кристоф Вальц, Леа Сейду, Рэйф Файнс, Моника Беллуччи, Бен Уишоу, Наоми Харрис, Дэйв Батиста, Эндрю Скотт, Рори Киннер
    Studio: MGM
    Rating Annotation: Rated PG-13 For intense sequences of action and violence, some disturbing images, sensuality and language.
    Rating: 4
    Long Deion: Зашифрованное послание из неизвестного источника выводит Бонда на след зловещей глобальной организации под кодовым названием СПЕКТР, в то время как М пытается спасти секретную разведывательную службу от ликвидации.
    Deion: Зашифрованное послание из неизвестного источника выводит Бонда на след зловещей глобальной организации под кодовым названием СПЕКТР, в то время как М пытается спасти секретную разведывательную службу от ликвидации.
    Release Date: 2015-10-26T08: 00: 00Z
    Genre: Action Adventure
    Artist: Sam Mendes
    Name: Spectre

    General:
    Complete name : Spectre.(SD).(pk).m4v
    Format : MPEG-4
    Codec ID : M4V (M4V /M4A /mp42/isom)
    File size : 3.40 GiB
    Duration : 2h 28mn
    Overall bit rate mode : Variable
    Overall bit rate : 3 286 Kbps
    Movie name : Spectre
    Performer : Sam Mendes
    Director : Сэм Мендес
    Actor : Дэниэл Крэйг/Кристоф Вальц/Леа Сейду/Рэйф Файнс/Моника Беллуччи/Бен Уишоу/Наоми Харрис/Дэйв Батиста/Эндрю Скотт/Рори Киннер
    Screenplay by : Джон Логан/Нил Пёрвис/Роберт Уэйд
    Producer : Барбара Брокколи/Майкл Дж. Уилсон/Закария Алауи
    Production studio : MGM
    Genre : Action Adventure
    ContentType : Short Film
    Deion : Зашифрованное послание из неизвестного источника выводит Бонда на след зловещей глобальной организации под кодовым названием СПЕКТР, в то время как М пытается спасти секретную разведывательную службу от ликвидации.
    Recorded date : UTC 2015-10-26 08: 00: 00
    Encoded date : UTC 2016-01-19 23: 00: 13
    Tagged date : UTC 2016-01-19 23: 01: 32
    Copyright : Spectre ©2015 Danjaq, MGM, CPII. Spectre, 007 Gun Logo and related James Bond Trademarks, TM Danjaq. All Rights Reserved.
    Cover : Yes
    Rating : None
    Title/Sort : Spectre
    LongDeion : Зашифрованное послание из неизвестного источника выводит Бонда на след зловещей глобальной организации под кодовым названием СПЕКТР, в то время как М пытается спасти секретную разведывательную службу от ликвидации.
    AppleStoreCatalogID : 1042425776
    Vendor : Apple: vendor_id: 2015-678552
    ContentRating : mpaa|PG-13|300|Rated PG-13 For intense sequences of action and violence, some disturbing images, sensuality and language.

    Video #1
    ID : 1
    Format : AVC
    Format/Info : Advanced Video Codec
    Format profile : High@L3.1
    Format settings, CABAC : Yes
    Format settings, ReFrames : 9 frames
    Codec ID : avc1
    Codec ID/Info : Advanced Video Coding
    Duration : 2h 28mn
    Source duration : 2h 28mn
    Bit rate : 3 000 Kbps
    Width : 1 024 pixels
    Height : 432 pixels
    Display aspect ratio : 2.40: 1
    Frame rate mode : Variable
    Frame rate : 23.976 (24000/1001) fps
    Minimum frame rate : 23.810 fps
    Maximum frame rate : 24.272 fps
    Color space : YUV
    Chroma subsampling : 4: 2: 0
    Bit depth : 8 bits
    Scan type : Progressive
    Bits/(Pixel*Frame) : 0.283
    Stream size : 3.10 GiB (91%)
    Source stream size : 3.10 GiB (91%)
    Title : Main Program
    Writing library : x264 core 142 r2479 dd79a61
    Encoding settings : cabac=1/ref=9/deblock=1: 0: 0/analyse=0x3: 0x113/me=umh/subme=9/psy=1/psy_rd=1.00: 0.00/mixed_ref=1/me_range=32/chroma_me=1/trellis=1/8x8dct=1/cqm=0/deadzone=21, 11/fast_pskip=1/chroma_qp_offset=-2/threads=36/lookahead_threads=3/sliced_threads=0/nr=0/decimate=1/interlaced=0/bluray_compat=0/constrained_intra=0/bframes=6/b_pyramid=2/b_adapt=2/b_bias=0/direct=1/weightb=1/open_gop=0/weightp=2/keyint=240/keyint_min=24/scenecut=40/intra_refresh=0/rc_lookahead=40/rc=2pass/mbtree=1/bitrate=3000/ratetol=1.0/qcomp=0.60/qpmin=0/qpmax=69/qpstep=4/cplxblur=20.0/qblur=0.5/ip_ratio=1.40/aq=1: 1.00
    Language : English
    Encoded date : UTC 2016-01-19 23: 00: 14
    Tagged date : UTC 2016-01-19 23: 00: 24
    Color range : Limited
    Color primaries : BT.709
    Transfer characteristics : BT.709
    Matrix coefficients : BT.709
    Menus : 7, 8

    Video #2
    ID : 8
    Format : JPEG
    Codec ID : jpeg
    Duration : 2h 28mn
    Bit rate mode : Variable
    Bit rate : 893 bps
    Width : 640 pixels
    Height : 270 pixels
    Display aspect ratio : 2.40: 1
    Frame rate mode : Variable
    Frame rate : 0.003 fps
    Minimum frame rate : 0.002 fps
    Maximum frame rate : 0.006 fps
    Color space : YUV
    Chroma subsampling : 4: 2: 0
    Bit depth : 8 bits
    Compression mode : Lossy
    Bits/(Pixel*Frame) : 1.723
    Stream size : 1 017 KiB (0%)
    Title : Chapter Images
    Language : English
    Default : No
    Encoded date : UTC 2016-01-19 23: 00: 32
    Tagged date : UTC 2016-01-19 23: 00: 32
    Menu For : 1

    Audio #1
    ID : 2
    Format : AAC
    Format/Info : Advanced Audio Codec
    Format profile : LC
    Codec ID : 40
    Duration : 2h 28mn
    Bit rate mode : Variable
    Bit rate : 123 Kbps
    Maximum bit rate : 227 Kbps
    Channel(s) : 2 channels
    Channel positions : Front: L R
    Sampling rate : 48.0 KHz
    Frame rate : 46.875 fps (1024 spf)
    Compression mode : Lossy
    Stream size : 131 MiB (4%)
    Title : Russian Stereo
    Language : Russian
    Default : Yes
    Alternate group : 1
    Encoded date : UTC 2016-01-19 23: 00: 14
    Tagged date : UTC 2016-01-19 23: 00: 25
    Subtitles : 4, 6

    Audio #2
    ID : 3
    Format : AAC
    Format/Info : Advanced Audio Codec
    Format profile : LC
    Codec ID : 40
    Duration : 2h 28mn
    Bit rate mode : Variable
    Bit rate : 155 Kbps
    Maximum bit rate : 239 Kbps
    Channel(s) : 2 channels
    Channel positions : Front: L R
    Sampling rate : 48.0 KHz
    Frame rate : 46.875 fps (1024 spf)
    Compression mode : Lossy
    Stream size : 165 MiB (5%)
    Title : English Stereo
    Language : English
    Default : No
    Alternate group : 1
    Encoded date : UTC 2016-01-19 23: 00: 14
    Tagged date : UTC 2016-01-19 23: 00: 22
    Subtitles : 5

    Text #1
    ID : 4
    Format : Timed Text
    Muxing mode : sbtl
    Codec ID : tx3g
    Duration : 2h 4mn
    Bit rate mode : Variable
    Bit rate : 3 bps
    Stream size : 2.48 KiB (0%)
    Title : Russian forced
    Language : Russian
    Default : Yes
    Forced : Yes
    Alternate group : 2
    Encoded date : UTC 2016-01-19 23: 00: 14
    Tagged date : UTC 2016-01-19 23: 00: 14
    Subtitles For : 2
    Full Alternative : 6

    Text #2
    ID : 5
    Format : Timed Text
    Muxing mode : sbtl
    Codec ID : tx3g
    Duration : 1h 21mn
    Bit rate mode : Variable
    Bit rate : 2 bps
    Stream size : 1.15 KiB (0%)
    Title : English forced
    Language : English
    Default : No
    Forced : Yes
    Alternate group : 2
    Encoded date : UTC 2016-01-19 23: 00: 14
    Tagged date : UTC 2016-01-19 23: 00: 14
    Subtitles For : 3

    Text #3
    ID : 6
    Format : Timed Text
    Muxing mode : sbtl
    Codec ID : tx3g
    Duration : 2h 20mn
    Bit rate mode : Variable
    Bit rate : 54 bps
    Stream size : 56.0 KiB (0%)
    Title : Russian full
    Language : Russian
    Default : No
    Forced : No
    Alternate group : 2
    Encoded date : UTC 2016-01-19 23: 00: 14
    Tagged date : UTC 2016-01-19 23: 00: 14
    Subtitles For : 2
    Forced Alternative : 4

    Menu #1
    00: 00: 00.000 : Chapter 1
    00: 06: 09.202 : Chapter 2
    00: 13: 04.867 : Chapter 3
    00: 18: 58.554 : Chapter 4
    00: 24: 46.860 : Chapter 5
    00: 28: 04.141 : Chapter 6
    00: 32: 15.642 : Chapter 7
    00: 36: 58.675 : Chapter 8
    00: 41: 56.723 : Chapter 9
    00: 46: 13.229 : Chapter 10
    00: 50: 52.007 : Chapter 11
    00: 53: 43.303 : Chapter 12
    01: 00: 21.451 : Chapter 13
    01: 06: 48.296 : Chapter 14
    01: 10: 59.046 : Chapter 15
    01: 15: 14.176 : Chapter 16
    01: 18: 55.731 : Chapter 17
    01: 26: 11.124 : Chapter 18
    01: 29: 40.083 : Chapter 19
    01: 36: 43.631 : Chapter 20
    01: 41: 44.473 : Chapter 21
    01: 49: 06.498 : Chapter 22
    01: 55: 52.904 : Chapter 23
    01: 59: 39.297 : Chapter 24
    02: 04: 19.827 : Chapter 25
    02: 09: 28.594 : Chapter 26
    02: 14: 05.746 : Chapter 27
    02: 19: 42.457 : Chapter 28

    Menu #2
    ID : 7
    Codec ID : text
    Duration : 2h 28mn
    Language : English
    Encoded date : UTC 2016-01-19 23: 00: 25
    Tagged date : UTC 2016-01-19 23: 00: 25
    Menu For : 1
    00: 00: 00.000 : Chapter 1
    00: 06: 09.202 : Chapter 2
    00: 13: 04.867 : Chapter 3
    00: 18: 58.554 : Chapter 4
    00: 24: 46.860 : Chapter 5
    00: 28: 04.141 : Chapter 6
    00: 32: 15.642 : Chapter 7
    00: 36: 58.675 : Chapter 8
    00: 41: 56.723 : Chapter 9
    00: 46: 13.229 : Chapter 10
    00: 50: 52.007 : Chapter 11
    00: 53: 43.303 : Chapter 12
    01: 00: 21.451 : Chapter 13
    01: 06: 48.296 : Chapter 14
    01: 10: 59.046 : Chapter 15
    01: 15: 14.176 : Chapter 16
    01: 18: 55.731 : Chapter 17
    01: 26: 11.124 : Chapter 18
    01: 29: 40.083 : Chapter 19
    01: 36: 43.631 : Chapter 20
    01: 41: 44.473 : Chapter 21
    01: 49: 06.498 : Chapter 22
    01: 55: 52.904 : Chapter 23
    01: 59: 39.297 : Chapter 24
    02: 04: 19.827 : Chapter 25
    02: 09: 28.594 : Chapter 26
    02: 14: 05.746 : Chapter 27
    02: 19: 42.457 : Chapter 28
    Bit rate mode : VBR
    Скриншоты




    Залил: ProT1gR

    Онлайн видео 007: СПЕКТР


    Размер скачиваемого торрента: 3.40 GB (3650690183 Bytes)

    007: СПЕКТР/Spectre (2015) BDRip-AVC | iPad | Чистый звук
    загрузка...
    Рейтинг →
     (голосов: 1, оценка 5/5, голосовать можно 1 раз )

    Другие торренты по теме:

  • OST - 007: Спектр / Spectre (2015) MP3 скачать торрент бесплатно
  • OST - 007: Спектр / Spectre (2015) FLAC скачать торрент бесплатно
  • 007: СПЕКТР / Spectre (2015) HDRip | КПК | Чистый звук скачать торрент бесплатно
  • 007: СПЕКТР / Spectre (2015) HDRip от Scarabey | Чистый звук скачать торрент бесплатно
  • 007: СПЕКТР / Spectre / 2015 / ДБ (Line) / HDRip скачать торрент бесплатно
  • 007: СПЕКТР / Spectre / 2015 / АП (Чадов), СТ / HDRip скачать торрент бесплатно
  • 007: СПЕКТР / Spectre (2015) BDRemux 1080p | D, A | Лицензия скачать торрент бесплатно
  • 007: СПЕКТР / Spectre (2015) BDRip-AVC от ExKinoRay | D, A | Лицензия скачать торрент бесплатно


    • Комментарии (0):

      Информация

      Информация

        Посетители, находящиеся в группе Гости, не могут оставлять комментарии в данной новости.

        ↓ Меню



        ↓ Опрос

        А Вы добавили сайт в закладки?
        Да
        Не


        Top 10 за неделю (Фильмы)