.
Авторизация | Регистрация
Хочешь лучшие торренты? Добавь свой email!
Добавить
» » Он – дракон (2015) BDRip от AleksSin | Лицензия торрент скачать бесплатно




    Он – дракон (2015) BDRip от AleksSin | Лицензия торрент скачать бесплатно

    Опубликовал: Админ | Дата: 8-02-2016, 05:01 | Просмотров: 91



    Детально о кино
    Русское название: Он – дракон
    Создали в: 2015
    Категория жанра: Фэнтези
    Главный режиссер: Индар Джендубаев

    Актеры
    Мария Поезжаева, Матвей Лыков, Станислав Любшин, Иева Андреевайте, Петр Романов, Андрей Лебединский, Марта Тимофеева, Иво Господинов, Егор Зубарчук, Виктория Рунцова

    Сюжет фильма

    В разгар свадьбы княжну Мирославу похищает дракон, унося в свой замок на острове. В прошлом остались родные, жених, теперь только каменный плен в компании прекрасного Армана… но кто он и как оказался на острове? Мира поймет это слишком поздно: любовь к нему, человеку-дракону, откроет ей горькую истину — любить страшно.

    Снималось в: Россия
    Киностудия: Базелевс Продакшн
    Время просмотра: 01: 47: 04
    Перевод текста: Не требуется
    Файл
    Кодек для видео: AVI (XviD)
    Качество фильма: BDRip Исходник: Blu-ray
    Информация о видео: 720x304 (2.35: 1), 24.000 fps, XviD build 73 ~2278 kbps avg, 0.43 bit/pixel
    Информация о звуке: 48 kHz, AC3 Dolby Digital, 3/2 (L, C, R, l, r) + LFE ch, ~448 kbps
    Субтитры: нет
    Семпл
    MediaInfo

    Общее
    Полное имя : S: ФильмыОн – дракон 2015. BDRip (AleksSin).avi
    Формат : AVI
    Формат/Информация : Audio Video Interleave
    Профиль формата : OpenDML
    Размер файла : 2, 05 Гбайт
    Продолжительность : 1 ч. 47 м.
    Общий поток : 2738 Кбит/сек
    Программа кодирования : VirtualDubMod 1.5.10.3 | www.virtualdub-fr.org || (build 2550/release)
    Библиотека кодирования : VirtualDubMod build 2550/release
    Видео
    Идентификатор : 0
    Формат : MPEG-4 Visual
    Профиль формата : Advanced Simple@L5
    Параметр BVOP формата : 1
    Параметр QPel формата : Нет
    Параметр GMC формата : Без точки перехода
    Параметр матрицы формата : Выборочная
    Идентификатор кодека : XVID
    Идентификатор кодека/Подсказка : XviD
    Продолжительность : 1 ч. 47 м.
    Битрейт : 2278 Кбит/сек
    Ширина : 720 пикселей
    Высота : 304 пикселя
    Соотношение сторон : 2, 35: 1
    Частота кадров : 24, 000 кадра/сек
    Цветовое пространство : YUV
    Субдискретизация насыщенности : 4: 2: 0
    Битовая глубина : 8 бит
    Тип развёртки : Прогрессивная
    Метод сжатия : С потерями
    Бит/(Пиксели*Кадры) : 0.434
    Размер потока : 1, 70 Гбайт (83%)
    Библиотека кодирования : XviD 73
    Аудио
    Идентификатор : 1
    Формат : AC-3
    Формат/Информация : Audio Coding 3
    Расширение режима : CM (complete main)
    Параметр Endianness формата : Big
    Идентификатор кодека : 2000
    Продолжительность : 1 ч. 47 м.
    Вид битрейта : Постоянный
    Битрейт : 448 Кбит/сек
    Каналы : 6 каналов
    Расположение каналов : Front: L C R, Side: L R, LFE
    Частота : 48, 0 КГц
    Битовая глубина : 16 бит
    Метод сжатия : С потерями
    Размер потока : 343 Мбайт (16%)
    Выравнивание : Разделение по промежуткам
    Продолжительность промежутка : 42 мс. (1, 00 видеокадр)
    Время предзагрузки промежутка : 500 мс.

    Скриншоты

    Релиз подготовил:
    Залил: *AleksSin*

    Онлайн видео Он – дракон (2015) BDRip от AleksSin


    Размер скачиваемого торрента: 2.05 GB (2198751232 Bytes)

    Он – дракон (2015) BDRip от AleksSin | Лицензия
    загрузка...
    Рейтинг →
     (голосов: 1, оценка 5/5, голосовать можно 1 раз )

    Другие торренты по теме:

  • Крадущийся тигр, затаившийся дракон / Крадущийся тигр, спрятавшийся дракон / Crouching Tiger, Hidden Dragon / Wo hu cang long (2000) BDRip-AVC от HQCLUB | Лицензия
  • Лорд Дракон / Long xiao ye / Dragon Lord (1981) BDRip от FilmRus
  • Корона и дракон / The Crown and the Dragon (2013) BDRip 720p | L1
  • Дракон Пита / Petes Dragon (1977) BDRip 720p от MediaClub | P, A скачать через торрент бесплатно
  • Лили – настоящая ведьма: Магическая книга и дракон / Hexe Lilli: der Drache und das magische Buch (2008) BDRip 720p от CINEMANIA | P скачать через торрент бесплатно
  • Дракон-волк / Dragonwolf (2013) BDRip 720p | НТВ
  • Корона и дракон / The Crown and the Dragon (2013) BDRip от New-Team | P | лицензия скачать через торрент бесплатно
  • Корона и дракон / The Crown and the Dragon (2013) BDRip-AVC от New-Team | P | лицензия скачать через торрент бесплатно


    • Комментарии (0):

      Информация

      Информация

        Посетители, находящиеся в группе Гости, не могут оставлять комментарии в данной новости.

        ↓ Меню



        ↓ Опрос

        А Вы добавили сайт в закладки?
        Да
        Не


        Top 10 за месяц (Фильмы)