.
Авторизация | Регистрация
Хочешь лучшие торренты? Добавь свой email!
Добавить
» » Мы с Урала (1943) DVDRip от New-Team торрент скачать бесплатно




    Мы с Урала (1943) DVDRip от New-Team торрент скачать бесплатно

    Опубликовал: Админ | Дата: 9-02-2016, 13:19 | Просмотров: 123



    Снималось в: СССР
    Создали в: Союздетфильм, Stalinabadskaya Kinostudia
    Категория жанра: драма
    Создали в: 1943
    Время просмотра: 01: 11: 39
    Перевод текста: Не требуется
    Субтитры подготовлены: нет
    Оригинальная аудиодорожка: русский
    Главный режиссер: Александра Хохлова, Лев Кулешов

    Актеры

    Алексей Консовский, Янина Жеймо, Сергей Филиппов, Александр Михайлов, Георгий Милляр, Мария Виноградова, Пётр Галаджев, Сергей Комаров, Николай Граббе, Сергей Мартинсон, Мария Барабанова, Лидия Сухаревская, Глеб Флоринский...
    Описание:
    Мы с Урала — советский чёрно-белый художественный фильм, снятый на киностудии Союздетфильм в 1943 году во время эвакуации в городе Сталинабад. Двое подростков, работающих после окончания училища на большом уральском военном заводе, рвутся на фронт, куда медсестрой уже ушла сестра одного из них. Их будни, юношеские влюбленности и составляют сюжет фильма. Первая роль в кино Николая Граббе (Павка Дроздов).



    Источник: DVD5 R5
    Качество фильма видео: DVDRip
    Тип видео видео: AVI
    Информация о видео: 704x528 (4: 3), 25 fps, XviD ~ 1976 kbps avg, 0.213 bit/pixel
    Информация о звуке: 48 kHz, Dolby Digital AC3 2.0, 192 kbps
    Раздача от:
    MediaInfo

    Общее
    Полное имя : My.s.Urala.1943.DVDRip_New-team_by_AVP_Studio.avi
    Формат : AVI
    Формат/Информация : Audio Video Interleave
    Размер файла : 1, 09 Гбайт
    Продолжительность : 1 ч. 11 м.
    Общий поток : 2178 Кбит/сек
    Программа кодирования : VirtualDubModRus 1.5.10.2 (build 2542/release)
    Библиотека кодирования : VirtualDubMod build 2542/release
    Видео
    Идентификатор : 0
    Формат : MPEG-4 Visual
    Профиль формата : Advanced Simple@L5
    Параметр BVOP формата : 1
    Параметр QPel формата : Нет
    Параметр GMC формата : Без точки перехода
    Параметр матрицы формата : Выборочная
    Идентификатор кодека : XVID
    Идентификатор кодека/Подсказка : XviD
    Продолжительность : 1 ч. 11 м.
    Битрейт : 1976 Кбит/сек
    Ширина : 704 пикселя
    Высота : 528 пикселей
    Соотношение сторон : 4: 3
    Частота кадров : 25, 000 кадров/сек
    Цветовое пространство : YUV
    Субдискретизация насыщенности : 4: 2: 0
    Битовая глубина : 8 бит
    Тип развёртки : Прогрессивная
    Метод сжатия : С потерями
    Бит/(Пиксели*Кадры) : 0.213
    Размер потока : 1013 Мбайт (91%)
    Библиотека кодирования : XviD 73
    Аудио
    Идентификатор : 1
    Формат : AC-3
    Формат/Информация : Audio Coding 3
    Расширение режима : CM (complete main)
    Параметр Endianness формата : Big
    Идентификатор кодека : 2000
    Продолжительность : 1 ч. 11 м.
    Вид битрейта : Постоянный
    Битрейт : 192 Кбит/сек
    Каналы : 2 канала
    Расположение каналов : Front: L R
    Частота : 48, 0 КГц
    Битовая глубина : 16 бит
    Метод сжатия : С потерями
    Размер потока : 98, 4 Мбайт (9%)
    Выравнивание : Разделение по промежуткам
    Продолжительность промежутка : 40 мс. (1, 00 видеокадр)
    Время предзагрузки промежутка : 500 мс

    Скриншоты



    Залил: AVPStudio

    Онлайн видео Мы с Урала (1943) DVDRip от New


    Размер скачиваемого торрента: 1.09 GB (1170284544 Bytes)

    Мы с Урала (1943) DVDRip от New-Team
    загрузка...
    Рейтинг →
     (голосов: 1, оценка 5/5, голосовать можно 1 раз )

    Другие торренты по теме:

  • Мы с Урала (1943) DVDRip от New-Team


    • Комментарии (0):

      Информация

      Информация

        Посетители, находящиеся в группе Гости, не могут оставлять комментарии в данной новости.

        ↓ Меню



        ↓ Опрос

        А Вы добавили сайт в закладки?
        Да
        Не


        Top 10 за месяц (Фильмы)