.
Авторизация | Регистрация
Хочешь лучшие торренты? Добавь свой email!
Добавить
» » Рыцари-наездники / Knightriders (1981) HDTV 1080i | P2, A торрент скачать бесплатно




    Рыцари-наездники / Knightriders (1981) HDTV 1080i | P2, A торрент скачать бесплатно

    Опубликовал: Админ | Дата: 9-02-2016, 13:21 | Просмотров: 202



    Детально о кино
    Русское название: Рыцари-наездники
    Русское название в мировом прокате: Knightriders
    Создали в: 1981
    Категория жанра: боевик, драма, приключения
    Главный режиссер: Джордж А. Ромеро/George A. Romero

    Актеры
    Эд Харрис /Ed Harris/, Гэри Лахти /Gary Lahti/, Том Савини /Tom Savini/, Эми Ингерсолл /Amy Ingersoll/, Кристина Форрест /Christine Forrest/, Бразер Блю /Brother Blue/

    Сюжет фильма

    Странствующая группа разыгрывает на пленере поединки и турниры, чтобы подчеркнуть смысл и красоту древних понятий чести, мужества, доблести. Однако жизнь и окружающая действительность постоянно подбрасывают моторизованному ;войску короля Артура; всевозможные искушения. Например, предложения о сольных выступлениях в каких-нибудь передвижных театрах или цирках...

    Снималось в: США
    Киностудия: Laurel, United Film
    Время просмотра: 02: 20: 25.024
    Перевод текста: Профессиональный (двухголосый закадровый)MGMHD/НТВ+
    Авторский (одноголосый закадровый)А. Алексеев
    Файл
    Кодек для видео: h.264
    Качество фильма: HDTV 1080iMGM HD
    Информация о видео: 1920x1080 (16: 9), 25.000 fps, AVC, ~6699 Kbps, 0.065 bits/pixel
    Информация о звуке:
    Русский, 48.0 KHz, MP2, 2 ch, 192 KbpsMGMHD/НТВ+
    Русский, 48.0 KHz, AC3, 2 ch, 160 KbpsА. Алексеев
    Английский, 48.0 KHz, AC3, 2 ch, 192 Kbps
    Субтитры: нет
    MI
    Общее
    Уникальный идентификатор : 179264449774668291153860848870008969037 (0x86DD13C1F89794BDB3DDE95764D2574D)
    Полное имя : I: FilmsRitsari_naezdniki.1981.HDTV1080i.mkv
    Формат : Matroska
    Версия формата : Version 4/Version 2
    Размер файла : 7, 25 Гбайт
    Продолжительность : 2 ч. 20 м.
    Общий поток : 7390 Кбит/сек
    Дата кодирования : UTC 2016-02-07 15: 09: 39
    Программа кодирования : mkvmerge v8.8.0 (;Wind at my back;) 64bit
    Библиотека кодирования : libebml v1.3.3 + libmatroska v1.4.4
    Видео
    Идентификатор : 1
    Формат : AVC
    Формат/Информация : Advanced Video Codec
    Профиль формата : Main@L4
    Параметр CABAC формата : Да
    Параметр ReFrames формата : 4 кадра
    Параметр GOP формата : M=4, N=28
    Идентификатор кодека : V_MPEG4/ISO/AVC
    Продолжительность : 2 ч. 20 м.
    Битрейт : 6842 Кбит/сек
    Ширина : 1920 пикселей
    Высота : 1080 пикселей
    Соотношение сторон : 16: 9
    Режим частоты кадров : Переменный
    Частота кадров : 50, 000 кадров/сек
    Частота кадров в оригинале : 25, 000 кадров/сек
    Стандарт вещания : Component
    Цветовое пространство : YUV
    Субдискретизация насыщенности : 4: 2: 0
    Битовая глубина : 8 бит
    Тип развёртки : Чересстрочная
    Метод сохранения типа развёртки : Раздельные поля
    Порядок развёртки : Верхнее поле первое
    Бит/(Пиксели*Кадры) : 0.066
    Размер потока : 6, 71 Гбайт (93%)
    Default : Нет
    Forced : Нет
    Цветовой диапазон : Limited
    Основные цвета : BT.709
    Характеристики трансфера : BT.709
    Коэффициенты матрицы : BT.709
    Аудио #1
    Идентификатор : 2
    Формат : MPEG Audio
    Версия формата : Version 1
    Профиль формата : Layer 2
    Идентификатор кодека : A_MPEG/L2
    Идентификатор кодека/Подсказка : MP2
    Продолжительность : 2 ч. 20 м.
    Вид битрейта : Постоянный
    Битрейт : 192 Кбит/сек
    Каналы : 2 канала
    Частота : 48, 0 КГц
    Частота кадров : 41, 667 кадра/сек (1152 spf)
    Метод сжатия : С потерями
    Размер потока : 193 Мбайт (3%)
    Заголовок : MGMHD/NTV+
    Язык : Russian
    Default : Да
    Forced : Нет
    Аудио #2
    Идентификатор : 3
    Формат : AC-3
    Формат/Информация : Audio Coding 3
    Расширение режима : CM (complete main)
    Параметр Endianness формата : Big
    Идентификатор кодека : A_AC3
    Продолжительность : 2 ч. 20 м.
    Вид битрейта : Постоянный
    Битрейт : 160 Кбит/сек
    Каналы : 2 канала
    Расположение каналов : Front: L R
    Частота : 48, 0 КГц
    Частота кадров : 31, 250 кадров/сек (1536 spf)
    Метод сжатия : С потерями
    Размер потока : 161 Мбайт (2%)
    Заголовок : A. Alekseev
    Язык : Russian
    Default : Нет
    Forced : Нет
    Аудио #3
    Идентификатор : 4
    Формат : AC-3
    Формат/Информация : Audio Coding 3
    Расширение режима : CM (complete main)
    Параметр Endianness формата : Big
    Идентификатор кодека : A_AC3
    Продолжительность : 2 ч. 20 м.
    Вид битрейта : Постоянный
    Битрейт : 192 Кбит/сек
    Каналы : 2 канала
    Расположение каналов : Front: L R
    Частота : 48, 0 КГц
    Частота кадров : 31, 250 кадров/сек (1536 spf)
    Метод сжатия : С потерями
    Размер потока : 193 Мбайт (3%)
    Язык : English
    Default : Нет
    Forced : Нет

    Скриншоты

    Релиз подготовил: Temperest
    Залил: Temperest

    Онлайн видео Рыцари-наездники


    Размер скачиваемого торрента: 7.25 GB (7782867739 Bytes)

    Рыцари-наездники/Knightriders (1981) HDTV 1080i | P2, A
    загрузка...
    Рейтинг →
     (голосов: 1, оценка 4/5, голосовать можно 1 раз )

    Другие торренты по теме:



      Комментарии (0):

      Информация

      Информация

        Посетители, находящиеся в группе Гости, не могут оставлять комментарии в данной новости.

        ↓ Меню



        ↓ Опрос

        А Вы добавили сайт в закладки?
        Да
        Не


        Top 10 за месяц (Фильмы)