.
Авторизация | Регистрация
Хочешь лучшие торренты? Добавь свой email!
Добавить
» » В Филадельфии всегда солнечно / Its Always Sunny in Philadelphia (2016) WEB-DLRip | КПК | LostFilm торрент скачать бесплатно




    В Филадельфии всегда солнечно / Its Always Sunny in Philadelphia (2016) WEB-DLRip | КПК | LostFilm торрент скачать бесплатно

    Опубликовал: Админ | Дата: 10-02-2016, 13:00 | Просмотров: 159



    • В Филадельфии всегда солнечно/It;s Always Sunny in Philadelphia •
    ? Снималось в: США
    ? Создали в: 3 Arts Entertainment, Bluebush Productions, FX Productions, RCG Productions (II), RCH, Sunny Television Productions
    ? Создали в: 2016
    ? Категория жанра: комедия
    ? Главный режиссёр: Мэтт Шекман, Фред Сэвэдж, Дэниэл Эттиэс
    ?
    Актеры
    Гленн Хоуертон, Чарли Дэй, Роб МакЭлхенни, Кэйтлин Олсон, Мэри Элизабет Эллис, Дэвид Хорнсби, Артемис Пебдани, Дэнни Де Вито.

    ? Перевод текста: Профессиональный (многоголосый, закадровый от Lostfilm)


    Описание фильма
    Этот ситком повествует о четырех друзьях, которые держат ирландский бар в не самом лучшем районе Филадельфии. То же самое можно сказать и о самих героях — они враждебны и аморальны друг к другу, всегда ссорятся, врут и пытаются что-то друг другу доказать, попадая из-за этого в самые нелепые и смешнейшие ситуации.



    ? Качество фильма: WEB-DLRip
    ? Время просмотра: по ~ 00: 20: 00

    ? Тип видео: MP4
    ? Информация о видео кодек: H.264
    ? Информация о звуке кодек: AAC-LC
    ? Свойства видео: 640x360 (16: 9), 23.976 fps, 500 kbps (0.091 bit/pixel)
    ? Свойства аудио: 48.0 KHz, 2 ch, 128 kbps
    MediaInfo
    General
    Complete name : Its.Always.Sunny.in.Philadelphia.S11E01.WEB-DLRip.rus.LostFilm.mp4
    Format : MPEG-4
    Format profile : Base Media
    Codec ID : isom (isom/avc1/iso6)
    File size : 93.5 MiB
    Duration : 20mn 42s
    Overall bit rate mode : Variable
    Overall bit rate : 631 Kbps
    Encoded date : UTC 2016-01-11 10: 47: 07
    Tagged date : UTC 2016-01-11 10: 47: 07

    Video
    ID : 1
    Format : AVC
    Format/Info : Advanced Video Codec
    Format profile : High@L4.1
    Format settings, CABAC : Yes
    Format settings, ReFrames : 9 frames
    Codec ID : avc1
    Codec ID/Info : Advanced Video Coding
    Duration : 20mn 42s
    Bit rate : 500 Kbps
    Maximum bit rate : 2 559 Kbps
    Width : 640 pixels
    Height : 360 pixels
    Display aspect ratio : 16: 9
    Frame rate mode : Constant
    Frame rate : 23.976 (24000/1001) fps
    Color space : YUV
    Chroma subsampling : 4: 2: 0
    Bit depth : 8 bits
    Scan type : Progressive
    Bits/(Pixel*Frame) : 0.091
    Stream size : 74.0 MiB (79%)
    Title : 264@GPAC0.5.2-DEV-rev248-g39d5978-master
    Writing library : x264 core 146 r2538 121396c
    Encoding settings : cabac=1/ref=9/deblock=1: -3: -3/analyse=0x3: 0x113/me=umh/subme=11/psy=1/psy_rd=1.00: 0.00/mixed_ref=1/me_range=32/chroma_me=1/trellis=2/8x8dct=1/cqm=0/deadzone=21, 11/fast_pskip=0/chroma_qp_offset=-2/threads=6/lookahead_threads=1/sliced_threads=0/nr=0/decimate=0/interlaced=0/bluray_compat=0/constrained_intra=0/bframes=9/b_pyramid=2/b_adapt=2/b_bias=0/direct=3/weightb=1/open_gop=0/weightp=2/keyint=240/keyint_min=23/scenecut=40/intra_refresh=0/rc=2pass/mbtree=0/bitrate=500/ratetol=1.0/qcomp=0.60/qpmin=0/qpmax=69/qpstep=4/cplxblur=20.0/qblur=0.5/ip_ratio=1.40/pb_ratio=1.30/aq=1: 1.00
    Encoded date : UTC 2016-01-11 10: 47: 07
    Tagged date : UTC 2016-01-11 10: 47: 09

    Audio
    ID : 2
    Format : AAC
    Format/Info : Advanced Audio Codec
    Format profile : LC
    Codec ID : 40
    Duration : 20mn 42s
    Bit rate mode : Variable
    Bit rate : 128 Kbps
    Maximum bit rate : 151 Kbps
    Channel(s) : 2 channels
    Channel positions : Front: L R
    Sampling rate : 48.0 KHz
    Frame rate : 46.875 fps (1024 spf)
    Compression mode : Lossy
    Stream size : 18.9 MiB (20%)
    Encoded date : UTC 2016-01-11 10: 11: 21
    Tagged date : UTC 2016-01-11 10: 47: 09
    Скриншоты

    Залил: ProT1gR

    Онлайн видео В Филадельфии всегда солнечно


    Размер скачиваемого торрента: 489.00 MB (512755507 Bytes)

    В Филадельфии всегда солнечно/Its Always Sunny in Philadelphia (2016) WEB-DLRip | КПК | LostFilm
    загрузка...
    Рейтинг →
     (голосов: 1, оценка 5/5, голосовать можно 1 раз )

    Другие торренты по теме:

  • В Филадельфии всегда солнечно / Its Always Sunny in Philadelphia (2012) WEB-DLRip | LostFilm
  • В Филадельфии всегда солнечно / Its Always Sunny in Philadelphia (2005-2013) WEB-DLRip
  • В Филадельфии всегда солнечно / Its Always Sunny in Philadelphia (2016) WEB-DL 1080p | LostFilm
  • В Филадельфии всегда солнечно / Its Always Sunny in Philadelphia (2016) WEB-DLRip | LostFilm
  • В Филадельфии всегда солнечно / Its Always Sunny in Philadelphia (2017) HDTVRip 720p | Sunshine Studio
  • В Филадельфии всегда солнечно / Its Always Sunny in Philadelphia | LostFilm (2017) WEB-DL 720p
  • В Филадельфии всегда солнечно / Its Always Sunny in Philadelphia (2017) HDTVRip 720p | Sunshine Studio
  • В Филадельфии всегда солнечно / Its Always Sunny in Philadelphia (2017) WEB-DLRip | LostFilm


    • Комментарии (0):

      Информация

      Информация

        Посетители, находящиеся в группе Гости, не могут оставлять комментарии в данной новости.

        ↓ Меню



        ↓ Опрос

        А Вы добавили сайт в закладки?
        Да
        Не


        Top 10 за месяц (Фильмы)