.
Авторизация | Регистрация
» » 007: СПЕКТР / Spectre (2015) BDRemux 1080p | D, A | Лицензия скачать торрент бесплатно




    007: СПЕКТР / Spectre (2015) BDRemux 1080p | D, A | Лицензия скачать торрент бесплатно

    Опубликовал: Админ | Дата: 12-02-2016, 05:01 | Просмотров: 108



    Детально о кино
    Русское название: 007: СПЕКТР
    Русское название в мировом прокате: Spectre
    Создали в: 2015
    Категория жанра: боевик, триллер, приключения
    Главный режиссер: Сэм Мендес

    Актеры
    Дэниэл Крэйг, Кристоф Вальц, Леа Сейду, Рэйф Файнс, Моника Беллуччи, Бен Уишоу, Наоми Харрис, Дэйв Батиста, Эндрю Скотт, Рори Киннер

    Сюжет фильма

    Новая работа Джеймса Бонда будет связана не только с защитой человечества, но и с личной информацией из его далекого прошлого. Спектр, террористическая организация, владеющая мощным оружием, странным образом выходит на связь с Джеймсом, предлагая информацию, о которой он даже не знал. Расследование, за которое взялся серьезный агент, встало в самом начале, ведь со Спектром оказываются связаны самые высшие чины из его руководства.
    Эта миссия, быть может, станет последней для бессменного агента Бонда - без прикрытия, без содействия ему предстоит лично столкнуться со своим туманным прошлым, и с опасными террористами.

    Снималось в: Великобритания, США
    Киностудия: Columbia Pictures, Eon Productions Ltd., Metro-Goldwyn-Mayer (MGM)
    Время просмотра: 02: 28: 16
    Перевод текста: Профессиональный (дублированный) Blu-ray EUR + Авторский (одноголосый, закадровый) Михаил Чадов
    Файл
    Тип видео: Matroska
    Информация о видео: 1920x1080 at 23.976 fps, MPEG-4 AVC, ~24092 kbps avg
    Aудио#1: Russian: 48 kHz, DTS, 3/2 (L, C, R, l, r) + LFE ch, ~768.00 kbps avg|Дубляж, Blu-ray EUR|
    Информация о звуке#2: English: 48 kHz, DTS-HD MA 7.1 ch, ~4742.00 kbps avg
    Aудио#3: Ukrainian: 48 kHz, AC3, 3/2 (L, C, R, l, r) + LFE ch, ~448.00 kbps avg|Дубляж, Blu-ray EUR|
    Aудио#4: Russian: 48 kHz, DTS, 3/2 (L, C, R, l, r) + LFE ch, ~1509.00 kbps avg|Авторский, М.Чадов|
    Субтитры: Russian, Ukrainian, English
    ***Сохранены оригинальные главы как на Blu-ray.
    ***Сборка - bog3417.
    Знаете ли Вы, что...
    Роль С мог сыграть Чиветель Эджиофор.
    Энг Ли, Том Хупер, Дэвид Йэтс, Дэнни Бойл, Шейн Блэк, Кристофер Нолан рассматривались на пост режиссера до того, как к этой должности согласился вернуться Сэм Мендес.
    Новый автомобиль Джеймса Бонда - Aston Martin DB10.
    Гари Олдман рассматривался на роль, которую в итоге получил Кристоф Вальц.
    Сцена взрыва секретной базы в Марокко внесена в Книгу рекордов Гиннеса как самый большой постановочный взрыв в истории кино.
    MI
    Общее
    Уникальный идентификатор : 199714578573372303481606639004358734053 (0x963FA0F3D3DBE0BFA299B78F97F6F0E5)
    Полное имя : Spectre.2015.BluRay.Remux.1080p.AVC.DTS-HD.MA.7.1.mkv
    Формат : Matroska
    Версия формата : Version 2
    Размер файла : 32, 5 Гбайт
    Продолжительность : 2 ч. 28 м.
    Режим общего битрейта : Переменный
    Общий поток : 31, 4 Мбит/сек
    Название фильма : BLUEBIRD
    Дата кодирования : UTC 2016-02-10 22: 00: 24
    Программа кодирования : mkvmerge v7.9.0 (;Birds;) 64bit
    Библиотека кодирования : libebml v1.3.1 + libmatroska v1.4.2
    Видео
    Идентификатор : 1
    Формат : AVC
    Формат/Информация : Advanced Video Codec
    Профиль формата : High@L4.1
    Параметр CABAC формата : Да
    Параметр ReFrames формата : 4 кадра
    Идентификатор кодека : V_MPEG4/ISO/AVC
    Продолжительность : 2 ч. 28 м.
    Вид битрейта : Переменный
    Максимальный битрейт : 31, 8 Мбит/сек
    Ширина : 1920 пикселей
    Высота : 1080 пикселей
    Соотношение сторон : 16: 9
    Режим частоты кадров : Постоянный
    Частота кадров : 23, 976 кадра/сек
    Цветовое пространство : YUV
    Субдискретизация насыщенности : 4: 2: 0
    Битовая глубина : 8 бит
    Тип развёртки : Прогрессивная
    Default : Да
    Forced : Нет
    Аудио #1
    Идентификатор : 2
    Формат : DTS
    Формат/Информация : Digital Theater Systems
    Режим : 16
    Параметр Endianness формата : Big
    Идентификатор кодека : A_DTS
    Продолжительность : 2 ч. 28 м.
    Вид битрейта : Постоянный
    Битрейт : 768 Кбит/сек
    Каналы : 6 каналов
    Расположение каналов : Front: L C R, Side: L R, LFE
    Частота : 48, 0 КГц
    Битовая глубина : 24 бит
    Метод сжатия : С потерями
    Размер потока : 814 Мбайт (2%)
    Заголовок : BD EUR
    Язык : Russian
    Default : Да
    Forced : Нет
    Аудио #2
    Идентификатор : 3
    Формат : DTS
    Формат/Информация : Digital Theater Systems
    Профиль формата : MA/Core
    Режим : 16
    Параметр Endianness формата : Big
    Идентификатор кодека : A_DTS
    Продолжительность : 2 ч. 28 м.
    Вид битрейта : Переменный
    Битрейт : Неизвестно/1509 Кбит/сек
    Каналы : 8 каналов/6 каналов
    Расположение каналов : Front: L C R, Side: L R, Back: L R, LFE/Front: L C R, Side: L R, LFE
    Частота : 48, 0 КГц
    Битовая глубина : 24 бит
    Метод сжатия : Без потерь/Lossy
    Язык : English
    Default : Нет
    Forced : Нет
    Аудио #3
    Идентификатор : 4
    Формат : AC-3
    Формат/Информация : Audio Coding 3
    Расширение режима : CM (complete main)
    Параметр Endianness формата : Big
    Идентификатор кодека : A_AC3
    Продолжительность : 2 ч. 28 м.
    Вид битрейта : Постоянный
    Битрейт : 448 Кбит/сек
    Каналы : 6 каналов
    Расположение каналов : Front: L C R, Side: L R, LFE
    Частота : 48, 0 КГц
    Метод сжатия : С потерями
    Размер потока : 475 Мбайт (1%)
    Заголовок : BD EUR
    Язык : Ukrainian
    Default : Нет
    Forced : Нет
    Аудио #4
    Идентификатор : 5
    Формат : DTS
    Формат/Информация : Digital Theater Systems
    Режим : 16
    Параметр Endianness формата : Big
    Идентификатор кодека : A_DTS
    Продолжительность : 2 ч. 28 м.
    Вид битрейта : Постоянный
    Битрейт : 1510 Кбит/сек
    Каналы : 6 каналов
    Расположение каналов : Front: L C R, Side: L R, LFE
    Частота : 48, 0 КГц
    Битовая глубина : 24 бит
    Метод сжатия : С потерями
    Размер потока : 1, 56 Гбайт (5%)
    Заголовок : VO, ЧАДОВ
    Язык : Russian
    Default : Нет
    Forced : Нет
    Текст #1
    Идентификатор : 6
    Формат : UTF-8
    Идентификатор кодека : S_TEXT/UTF8
    Идентификатор кодека/Информация : UTF-8 Plain Text
    Язык : Russian
    Default : Да
    Forced : Нет
    Текст #2
    Идентификатор : 7
    Формат : UTF-8
    Идентификатор кодека : S_TEXT/UTF8
    Идентификатор кодека/Информация : UTF-8 Plain Text
    Язык : Russian
    Default : Нет
    Forced : Нет
    Текст #3
    Идентификатор : 8
    Формат : UTF-8
    Идентификатор кодека : S_TEXT/UTF8
    Идентификатор кодека/Информация : UTF-8 Plain Text
    Язык : Ukrainian
    Default : Нет
    Forced : Нет
    Текст #4
    Идентификатор : 9
    Формат : UTF-8
    Идентификатор кодека : S_TEXT/UTF8
    Идентификатор кодека/Информация : UTF-8 Plain Text
    Язык : English
    Default : Нет
    Forced : Нет
    Текст #5
    Идентификатор : 10
    Формат : UTF-8
    Идентификатор кодека : S_TEXT/UTF8
    Идентификатор кодека/Информация : UTF-8 Plain Text
    Язык : English
    Default : Нет
    Forced : Нет
    Меню
    00: 00: 00.000 : en: 00: 00: 00.000
    00: 06: 09.119 : en: 00: 06: 09.119
    00: 13: 04.784 : en: 00: 13: 04.784
    00: 18: 58.471 : en: 00: 18: 58.471
    00: 24: 46.777 : en: 00: 24: 46.777
    00: 28: 04.057 : en: 00: 28: 04.057
    00: 32: 15.559 : en: 00: 32: 15.559
    00: 36: 58.591 : en: 00: 36: 58.591
    00: 41: 56.639 : en: 00: 41: 56.639
    00: 46: 13.145 : en: 00: 46: 13.145
    00: 50: 51.924 : en: 00: 50: 51.924
    00: 53: 43.220 : en: 00: 53: 43.220
    01: 00: 21.368 : en: 01: 00: 21.368
    01: 06: 48.213 : en: 01: 06: 48.213
    01: 10: 58.963 : en: 01: 10: 58.963
    01: 15: 14.093 : en: 01: 15: 14.093
    01: 18: 55.648 : en: 01: 18: 55.648
    01: 26: 11.041 : en: 01: 26: 11.041
    01: 29: 40.000 : en: 01: 29: 40.000
    01: 36: 43.548 : en: 01: 36: 43.548
    01: 41: 44.390 : en: 01: 41: 44.390
    01: 49: 06.415 : en: 01: 49: 06.415
    01: 55: 52.821 : en: 01: 55: 52.821
    01: 59: 39.214 : en: 01: 59: 39.214
    02: 04: 19.744 : en: 02: 04: 19.744
    02: 09: 28.511 : en: 02: 09: 28.511
    02: 14: 05.663 : en: 02: 14: 05.663
    02: 19: 42.374 : en: 02: 19: 42.374
    Скриншоты



    Онлайн видео 007: СПЕКТР


    Размер скачиваемого торрента: 32.50 GB (34899237434 Bytes)

    007: СПЕКТР/Spectre (2015) BDRemux 1080p | D, A | Лицензия
    загрузка...
    Рейтинг →
     (голосов: 1, оценка 5/5, голосовать можно 1 раз )

    Другие торренты по теме:

  • OST - 007: Спектр / Spectre (2015) MP3 скачать торрент бесплатно
  • OST - 007: Спектр / Spectre (2015) FLAC скачать торрент бесплатно
  • 007: СПЕКТР / Spectre (2015) HDRip | КПК | Чистый звук скачать торрент бесплатно
  • 007: СПЕКТР / Spectre (2015) HDRip от Scarabey | Чистый звук скачать торрент бесплатно
  • 007: СПЕКТР / Spectre / 2015 / ДБ (Line) / HDRip скачать торрент бесплатно
  • 007: СПЕКТР / Spectre / 2015 / АП (Чадов), СТ / HDRip скачать торрент бесплатно
  • 007: СПЕКТР / Spectre (2015) BDRip-AVC | iPad | Чистый звук скачать торрент бесплатно
  • 007: СПЕКТР / Spectre (2015) BDRip-AVC от ExKinoRay | D, A | Лицензия скачать торрент бесплатно


    • Комментарии (0):

      Информация

      Информация

        Посетители, находящиеся в группе Гости, не могут оставлять комментарии в данной новости.

        ↓ Меню



        ↓ Опрос

        А Вы добавили сайт в закладки?
        Да
        Не


        Top 10 за неделю (Фильмы)