.
Авторизация | Регистрация
» » Волки и овцы (1953) DVDRip от New-Team скачать торрент бесплатно




    Волки и овцы (1953) DVDRip от New-Team скачать торрент бесплатно

    Опубликовал: Админ | Дата: 27-02-2016, 13:31 | Просмотров: 87



    Снималось в: СССР
    Создали в: К/ст им.Горького
    Категория жанра: драма, комедия
    Создали в: 1953
    Время просмотра: 02: 53: 07
    Перевод текста: Не требуется
    Субтитры подготовлены: нет
    Оригинальная аудиодорожка: русский
    Главный режиссер: Владимир Сухобоков

    Актеры

    Вера Пашенная, Игорь Ильинский, Татьяна Еремеева, Елена Шатрова, Варвара Рыжова, Николай Светловидов, Борис Телегин, Владимир Владиславский, Дмитрий Павлов...
    Полный список актёров
    Описание:
    Фильм-спектакль Государственного академического Малого театра по пьесе А.Н. Островского.
    Провинциальная помещица Мурзавецкая, ханжа, скрывающаяся под маской благочестия и добродетели, хочет прибрать к рукам состояние богатой вдовы Купавиной. Для этого она решает женить на молодой вдове своего беспутного и слабовольного племянника. Но приехавший из столицы помещик Беркутов разрушает планы Мурзавецкой. Он входит в доверие к Купавиной и женится на молодой вдове.



    Источник: DVD9 R5
    Качество фильма видео: DVDRip
    Тип видео видео: AVI
    Информация о видео: 688x512 (4: 3), 25 fps, XviD ~ 1599 kbps avg, 0.182 bit/pixel
    Информация о звуке: 48 kHz, Dolby Digital AC3 2.0, 192 kbps
    Раздача от:
    MediaInfo

    Общее
    Полное имя : Volki.i.ovcy.1953.DVDRip_New-team_by_AVP_Studio.avi
    Формат : AVI
    Формат/Информация : Audio Video Interleave
    Профиль формата : OpenDML
    Размер файла : 2, 18 Гбайт
    Продолжительность : 2 ч. 53 м.
    Общий поток : 1804 Кбит/сек
    Программа кодирования : VirtualDubMod 1.5.10.3 | www.virtualdub-fr.org || (build 2550/release)
    Библиотека кодирования : VirtualDubMod build 2550/release
    Видео
    Идентификатор : 0
    Формат : MPEG-4 Visual
    Профиль формата : Advanced Simple@L5
    Параметр BVOP формата : 1
    Параметр QPel формата : Нет
    Параметр GMC формата : Без точки перехода
    Параметр матрицы формата : Выборочная
    Идентификатор кодека : XVID
    Идентификатор кодека/Подсказка : XviD
    Продолжительность : 2 ч. 53 м.
    Битрейт : 1599 Кбит/сек
    Ширина : 688 пикселей
    Высота : 512 пикселей
    Соотношение сторон : 4: 3
    Частота кадров : 25, 000 кадров/сек
    Цветовое пространство : YUV
    Субдискретизация насыщенности : 4: 2: 0
    Битовая глубина : 8 бит
    Тип развёртки : Прогрессивная
    Метод сжатия : С потерями
    Бит/(Пиксели*Кадры) : 0.182
    Размер потока : 1, 93 Гбайт (89%)
    Библиотека кодирования : XviD 1.2.1 (UTC 2008-12-04)
    Аудио
    Идентификатор : 1
    Формат : AC-3
    Формат/Информация : Audio Coding 3
    Расширение режима : CM (complete main)
    Параметр Endianness формата : Big
    Идентификатор кодека : 2000
    Продолжительность : 2 ч. 53 м.
    Вид битрейта : Постоянный
    Битрейт : 192 Кбит/сек
    Каналы : 2 канала
    Расположение каналов : Front: L R
    Частота : 48, 0 КГц
    Частота кадров : 31, 250 кадров/сек (1536 spf)
    Метод сжатия : С потерями
    Размер потока : 238 Мбайт (11%)
    Выравнивание : Разделение по промежуткам
    Продолжительность промежутка : 40 мс. (1, 00 видеокадр)
    Время предзагрузки промежутка : 500 мс

    Скриншоты



    Залил: AVPStudio

    Онлайн видео Волки и овцы (1953) DVDRip от New


    Размер скачиваемого торрента: 2.18 GB (2342029312 Bytes)

    Волки и овцы (1953) DVDRip от New-Team
    загрузка...
    Рейтинг →
     (голосов: 1, оценка 5/5, голосовать можно 1 раз )

    Другие торренты по теме:

  • Волки и овцы / 1976 / РУ / WEBRip скачать торрент бесплатно
  • Волки и овцы: бе-е-е-зумное превращение (2016) CAMRip скачать торрент бесплатно
  • Волки и овцы: бе-е-е-зумное превращение (2016) WEB-DL 720p | iTunes скачать торрент бесплатно
  • Волки и овцы: бе-е-е-зумное превращение (2016) скачать торрент бесплатно
  • Волки и овцы: бе-е-е-зумное превращение (2016) WEB-DLRip-AVC от New-Team | iTunes скачать торрент бесплатно
  • Волки и овцы: бе-е-е-зумное превращение (2016) WEB-DLRip от Kaztorrents | КПК | iTunes скачать торрент бесплатно
  • Волки и овцы: бе-е-е-зумное превращение (2016) BDRip от MegaPeer | iTunes скачать торрент бесплатно
  • Волки и овцы: бе-е-е-зумное превращение (2016) BDRip 720p | iTunes скачать торрент бесплатно


    • Комментарии (0):

      Информация

      Информация

        Посетители, находящиеся в группе Гости, не могут оставлять комментарии в данной новости.

        ↓ Меню



        ↓ Опрос

        А Вы добавили сайт в закладки?
        Да
        Не


        Top 10 за неделю (Фильмы)