.
Авторизация | Регистрация
Хочешь лучшие торренты? Добавь свой email!
Добавить
» » Колдовская доска 2 / Witchboard 2: The Devils Doorway (1993) BDRip-AVC | A торрент скачать бесплатно




    Колдовская доска 2 / Witchboard 2: The Devils Doorway (1993) BDRip-AVC | A торрент скачать бесплатно

    Опубликовал: Админ | Дата: 5-03-2016, 05:00 | Просмотров: 150


    Колдовская доска 2/Witchboard 2: The Devil;s Doorway (1993) BDRip-AVC

    Создали в: США
    Категория жанра: Мистика, ужасы
    Главный режиссер: Кевин Тенни
    Актеры: Эми Доленц, Кристофер Майкл Мур, Лорейн Ньюмен, Тимоти Гиббс, Джон Гэйтинс, Джули Майклс, Сара Кайте Кохлан, Марвин Каплан, Джефф Феринга, Тодд Аллен, Кенни Родс, Хезер Элизабет Пакхёрст

    Описание фильма

    Художница Пейдж снимает квартиру в многоэтажном доме. С помощью колдовской доски, найденной в кладовке, она связывается с духом женщины, которая раньше жила в этой квартире. Пейдж заинтересовывается сообщением Сьюзан, что та была убита, но? к своему большому удивлению не находит никакой информации ни о убийстве, ни о смерти Сьюзан Сидни. Тем временем жильцы дома начинают погибать самыми разнообразными способами...

    Релиз подготовил: K.E.N(NNM-CLUB)
    Время просмотра: 01: 39: 04
    Качество фильма видео: BDRip-AVC
    Перевод текста: Авторский (одноголосый, закадровый) х2
    Субтитры: отсутствуют
    Информация о видео: AVC, 1024x576 (16: 9), 23.976 fps, 2 564 Kbps (0.181 bit/pixel)
    Информация о звуке #1: AC-3, 48.0 KHz, 2 ch, 192 Kbps, CBR (Russian) - авторский А.Гаврилов
    Информация о звуке #2: AC-3, 48.0 KHz, 2 ch, 192 Kbps, CBR (Russian) - авторский (неизвестный)
    Информация о звуке #3: AC-3, 48.0 KHz, 2 ch, 192 Kbps, CBR (English) - оригинал
    MediaInfo:
    Формат : Matroska
    Версия формата : Version 2
    Размер файла : 2, 17 Гбайт
    Продолжительность : 1 ч. 39 м.
    Общий поток : 3139 Кбит/сек
    Название фильма :
    Дата кодирования : UTC 2016-03-04 06: 22: 40
    Программа кодирования : mkvmerge v5.3.0 (;I could have danced;) built on Feb 9 2012 10: 38: 07
    Библиотека кодирования : libebml v1.2.3 + libmatroska v1.3.0
    Attachment : Yes
    Видео
    Идентификатор : 1
    Формат : AVC
    Формат/Информация : Advanced Video Codec
    Профиль формата : High@L4.1
    Параметр CABAC формата : Да
    Параметр ReFrames формата : 10 кадров
    Идентификатор кодека : V_MPEG4/ISO/AVC
    Продолжительность : 1 ч. 39 м.
    Битрейт : 2564 Кбит/сек
    Ширина : 1024 пикселя
    Высота : 576 пикселей
    Соотношение сторон : 16: 9
    Режим частоты кадров : Постоянный
    Частота кадров : 23, 976 кадра/сек
    Цветовое пространство : YUV
    Субдискретизация насыщенности : 4: 2: 0
    Битовая глубина : 8 бит
    Тип развёртки : Прогрессивная
    Бит/(Пиксели*Кадры) : 0.181
    Размер потока : 1, 73 Гбайт (80%)
    Библиотека кодирования : x264 core 146 r2538 121396c
    Настройки программы : cabac=1/ref=10/deblock=1: -3: -3/analyse=0x3: 0x133/me=umh/subme=11/psy=1/psy_rd=1.00: 0.15/mixed_ref=1/me_range=32/chroma_me=1/trellis=2/8x8dct=1/cqm=0/deadzone=21, 11/fast_pskip=0/chroma_qp_offset=-3/threads=12/lookahead_threads=2/sliced_threads=0/nr=0/decimate=0/interlaced=0/bluray_compat=0/constrained_intra=0/bframes=8/b_pyramid=2/b_adapt=2/b_bias=0/direct=3/weightb=1/open_gop=0/weightp=2/keyint=240/keyint_min=23/scenecut=40/intra_refresh=0/rc=2pass/mbtree=0/bitrate=2564/ratetol=1.0/qcomp=0.60/qpmin=0/qpmax=69/qpstep=4/cplxblur=20.0/qblur=0.5/ip_ratio=1.40/pb_ratio=1.30/aq=2: 0.80
    Default : Да
    Forced : Нет
    Аудио #1
    Идентификатор : 2
    Формат : AC-3
    Формат/Информация : Audio Coding 3
    Расширение режима : CM (complete main)
    Параметр Endianness формата : Big
    Идентификатор кодека : A_AC3
    Продолжительность : 1 ч. 39 м.
    Вид битрейта : Постоянный
    Битрейт : 192 Кбит/сек
    Каналы : 2 канала
    Расположение каналов : Front: L R
    Частота : 48, 0 КГц
    Битовая глубина : 16 бит
    Метод сжатия : С потерями
    Размер потока : 136 Мбайт (6%)
    Заголовок : Андрей Гаврилов
    Язык : Russian
    Default : Да
    Forced : Нет
    Аудио #2
    Идентификатор : 3
    Формат : AC-3
    Формат/Информация : Audio Coding 3
    Расширение режима : CM (complete main)
    Параметр Endianness формата : Big
    Идентификатор кодека : A_AC3
    Продолжительность : 1 ч. 39 м.
    Вид битрейта : Постоянный
    Битрейт : 192 Кбит/сек
    Каналы : 2 канала
    Расположение каналов : Front: L R
    Частота : 48, 0 КГц
    Битовая глубина : 16 бит
    Метод сжатия : С потерями
    Размер потока : 136 Мбайт (6%)
    Заголовок : VO
    Язык : Russian
    Default : Нет
    Forced : Нет
    Аудио #3
    Идентификатор : 4
    Формат : AC-3
    Формат/Информация : Audio Coding 3
    Расширение режима : CM (complete main)
    Параметр Endianness формата : Big
    Идентификатор кодека : A_AC3
    Продолжительность : 1 ч. 39 м.
    Вид битрейта : Постоянный
    Битрейт : 192 Кбит/сек
    Каналы : 2 канала
    Расположение каналов : Front: L R
    Частота : 48, 0 КГц
    Битовая глубина : 16 бит
    Метод сжатия : С потерями
    Размер потока : 136 Мбайт (6%)
    Заголовок : оригинал
    Язык : English
    Default : Нет
    Forced : Нет
    Меню
    00: 00: 00.000 : en: 00: 00: 00.000
    00: 13: 22.844 : en: 00: 13: 22.844
    00: 20: 45.911 : en: 00: 20: 45.911
    00: 32: 37.706 : en: 00: 32: 37.706
    00: 44: 57.194 : en: 00: 44: 57.194
    00: 59: 14.634 : en: 00: 59: 14.634
    01: 10: 37.483 : en: 01: 10: 37.483
    01: 21: 44.191 : en: 01: 21: 44.191/code

    Скриншоты:


    Онлайн видео Колдовская доска 2


    Размер скачиваемого торрента: 2.17 GB (2332645519 Bytes)

    Колдовская доска 2/Witchboard 2: The Devils Doorway (1993) BDRip-AVC | A
    загрузка...
    Рейтинг →
     (голосов: 1, оценка 4/5, голосовать можно 1 раз )

    Другие торренты по теме:



      Комментарии (0):

      Информация

      Информация

        Посетители, находящиеся в группе Гости, не могут оставлять комментарии в данной новости.

        ↓ Меню



        ↓ Опрос

        А Вы добавили сайт в закладки?
        Да
        Не


        Top 10 за месяц (Фильмы)