.
Авторизация | Регистрация
» » Егор Булычов и другие (1953) DVDRip от New-Team скачать торрент бесплатно




    Егор Булычов и другие (1953) DVDRip от New-Team скачать торрент бесплатно

    Опубликовал: Админ | Дата: 12-03-2016, 14:42 | Просмотров: 131



    Снималось в: СССР
    Создали в: Мосфильм
    Категория жанра: драма
    Создали в: 1953
    Время просмотра: 02: 30: 08
    Перевод текста: Не требуется
    Субтитры подготовлены: нет
    Оригинальная аудиодорожка: русский
    Главный режиссер: Юлия Солнцева

    Актеры

    Сергей Лукьянов, Дина Андреева, Лариса Пашкова, Галина Пашкова, Нина Русинова, Лев Снежницкий, Юрий Любимов, Иван Каширин, Нина Никитина, Михаил Дадыко, Николай Пажитнов, Гарэн Жуковская, Алла Казанская, Вадим Русланов, Виктор Эйхов, Михаил Ульянов, Виктор Кольцов (Кутаков), Елена Понсова, Николай Тимофеев, Борис Шухмин, Вероника Васильева, Анатолий Борисов...
    Полный список актёров
    Описание:
    Фильм-спектакль по одноименной пьесе А.М.Горького в постановке Государственного театра им. Евг. Вахтангова.
    Крупный лесопромышленник Егор Булычев неизлечимо болен. В своем доме он окружен ничтожными и жадными людьми, с нетерпением ждущими его смерти. Умный и прозорливый Егор понимает, что прожил всю жизнь с чужими. Он по-своему выражает протест против ханжества и лицемерия хозяев - духовенства, либералов, против устоев идущего к краху буржуазного общества. Предсмертное проклятие Булычева своему классу тонет в мощных звуках революционной песни.



    Источник: DVD9 R5
    Качество фильма видео: DVDRip
    Тип видео видео: AVI
    Информация о видео: 688x512 (4: 3), 25 fps, XviD ~ 1875 kbps avg, 0.213 bit/pixel
    Информация о звуке: 48 kHz, Dolby Digital AC3 2.0, 192 kbps
    Раздача от:
    MediaInfo

    Общее
    Полное имя : Egor.Bulychov.i.drugie.1953.DVDRip_New-team_by_AVP_Studio.avi
    Формат : AVI
    Формат/Информация : Audio Video Interleave
    Профиль формата : OpenDML
    Размер файла : 2, 18 Гбайт
    Продолжительность : 2 ч. 30 м.
    Общий поток : 2080 Кбит/сек
    Программа кодирования : VirtualDubMod 1.5.10.3 | www.virtualdub-fr.org || (build 2550/release)
    Библиотека кодирования : VirtualDubMod build 2550/release
    Видео
    Идентификатор : 0
    Формат : MPEG-4 Visual
    Профиль формата : Advanced Simple@L5
    Параметр BVOP формата : 1
    Параметр QPel формата : Нет
    Параметр GMC формата : Без точки перехода
    Параметр матрицы формата : Выборочная
    Идентификатор кодека : XVID
    Идентификатор кодека/Подсказка : XviD
    Продолжительность : 2 ч. 30 м.
    Битрейт : 1875 Кбит/сек
    Ширина : 688 пикселей
    Высота : 512 пикселей
    Соотношение сторон : 4: 3
    Частота кадров : 25, 000 кадров/сек
    Цветовое пространство : YUV
    Субдискретизация насыщенности : 4: 2: 0
    Битовая глубина : 8 бит
    Тип развёртки : Прогрессивная
    Метод сжатия : С потерями
    Бит/(Пиксели*Кадры) : 0.213
    Размер потока : 1, 97 Гбайт (90%)
    Библиотека кодирования : XviD 1.2.1 (UTC 2008-12-04)
    Аудио
    Идентификатор : 1
    Формат : AC-3
    Формат/Информация : Audio Coding 3
    Расширение режима : CM (complete main)
    Параметр Endianness формата : Big
    Идентификатор кодека : 2000
    Продолжительность : 2 ч. 30 м.
    Вид битрейта : Постоянный
    Битрейт : 192 Кбит/сек
    Каналы : 2 канала
    Расположение каналов : Front: L R
    Частота : 48, 0 КГц
    Частота кадров : 31, 250 кадров/сек (1536 spf)
    Метод сжатия : С потерями
    Размер потока : 206 Мбайт (9%)
    Выравнивание : Разделение по промежуткам
    Продолжительность промежутка : 40 мс. (1, 00 видеокадр)
    Время предзагрузки промежутка : 500 мс

    Скриншоты



    Залил: AVPStudio

    Онлайн видео Егор Булычов и другие (1953) DVDRip от New


    Размер скачиваемого торрента: 2.18 GB (2341689344 Bytes)

    Егор Булычов и другие (1953) DVDRip от New-Team
    загрузка...
    Рейтинг →
     (голосов: 1, оценка 3/5, голосовать можно 1 раз )

    Другие торренты по теме:

  • Егор Булычов и другие (1953) DVDRip от New-Team скачать торрент бесплатно
  • Егор Булычов и другие (1953) DVDRip от New-Team скачать торрент бесплатно


    • Комментарии (0):

      Информация

      Информация

        Посетители, находящиеся в группе Гости, не могут оставлять комментарии в данной новости.

        ↓ Меню



        ↓ Опрос

        А Вы добавили сайт в закладки?
        Да
        Не


        Top 10 за неделю (Фильмы)