.
Авторизация | Регистрация
Хочешь лучшие торренты? Добавь свой email!
Добавить
» » Убийца / Sicario (2015) HDRip от NNM-CLUB | D, A торрент скачать бесплатно




    Убийца / Sicario (2015) HDRip от NNM-CLUB | D, A торрент скачать бесплатно

    Опубликовал: Админ | Дата: 17-03-2016, 05:00 | Просмотров: 97


    Убийца/Sicario (2015) HDRip

    Создали в: США
    Категория жанра: Боевик, триллер, драма, криминал, детектив
    Главный режиссер: Дени Вильнёв
    Актеры: Эмили Блант, Бенисио Дель Торо, Джош Бролин, Виктор Гарбер, Джон Бернтал, Дэниэл Калуя, Джеффри Донован, Рауль Трухильо, Хулио Седильо, Хэнк Роджерсон, Бернардо Галлегос, Максимилиано Эрнандес, Кевин Уиггинс, Эдгар Арреола, Ким Нив, Хесус Неварес-Кастилло, Дилан Кенин, Джон Трехо, Марти Линдси, Алекс Найт

    Описание фильма
    На американо-мексиканской границе женщина-полицейский сопровождает двух рейнджеров, которые преследуют наркобарона. Она не подозревает, что по ту сторону границы есть тайное место, где не действуют никакие законы и царят насилие и разврат.

    Возраст: 16+(зрителям, достигшим 16 лет)
    Рейтинг MPAA: R(Лицам до 17 лет обязательно присутствие взрослого)
    Дата мировой премьеры: 19 мая 2015
    Дата премьеры РФ: 26 ноября 2015
    Релиз подготовил: K.E.N(NNM-CLUB)
    Время просмотра: 02: 01: 20
    Качество фильма видео: HDRip
    Перевод текста: Дублированный(iTunes) , авторский (одноголосый, закадровый)Д.Есарев
    Субтитры: Отсутствуют
    Внимание!В переводе Д.Есарева содержится нецензурная лексика
    Информация о видео: MPEG4, XviD, 720x304 (2.35: 1), 23.976 fps, 1 743 Kbps (0.332 bit/pixel)
    Информация о звуке #1: AC-3, 48.0 KHz, 6 ch, 384 Kbps, CBR | Дубляж
    Информация о звуке #2: AC-3, 48.0 KHz, 6 ch, 448 Kbps, CBR | Д. Есарев (нецензурный)
    MediaInfo:
    Формат : AVI
    Формат/Информация : Audio Video Interleave
    Профиль формата : OpenDML
    Размер файла : 2, 20 Гбайт
    Продолжительность : 2 ч. 1 м.
    Общий поток : 2592 Кбит/сек
    Программа кодирования : VirtualDubModRus 1.5.10.2 (build 2542/release)
    Библиотека кодирования : VirtualDubMod build 2542/release
    Видео
    Идентификатор : 0
    Формат : MPEG-4 Visual
    Профиль формата : Advanced Simple@L5
    Параметр BVOP формата : 1
    Параметр QPel формата : Нет
    Параметр GMC формата : Без точки перехода
    Параметр матрицы формата : Выборочная
    Идентификатор кодека : XVID
    Идентификатор кодека/Подсказка : XviD
    Продолжительность : 2 ч. 1 м.
    Битрейт : 1743 Кбит/сек
    Ширина : 720 пикселей
    Высота : 304 пикселя
    Соотношение сторон : 2, 35: 1
    Частота кадров : 23, 976 кадра/сек
    Цветовое пространство : YUV
    Субдискретизация насыщенности : 4: 2: 0
    Битовая глубина : 8 бит
    Тип развёртки : Прогрессивная
    Метод сжатия : С потерями
    Бит/(Пиксели*Кадры) : 0.332
    Размер потока : 1, 48 Гбайт (67%)
    Библиотека кодирования : XviD 73
    Аудио #1
    Идентификатор : 1
    Формат : AC-3
    Формат/Информация : Audio Coding 3
    Расширение режима : CM (complete main)
    Параметр Endianness формата : Big
    Идентификатор кодека : 2000
    Продолжительность : 2 ч. 1 м.
    Вид битрейта : Постоянный
    Битрейт : 384 Кбит/сек
    Каналы : 6 каналов
    Расположение каналов : Front: L C R, Side: L R, LFE
    Частота : 48, 0 КГц
    Битовая глубина : 16 бит
    Метод сжатия : С потерями
    Размер потока : 333 Мбайт (15%)
    Выравнивание : Разделение по промежуткам
    Продолжительность промежутка : 42 мс. (1, 00 видеокадр)
    Время предзагрузки промежутка : 500 мс.
    Заголовок : Дублированный
    Аудио #2
    Идентификатор : 2
    Формат : AC-3
    Формат/Информация : Audio Coding 3
    Расширение режима : CM (complete main)
    Параметр Endianness формата : Big
    Идентификатор кодека : 2000
    Продолжительность : 2 ч. 1 м.
    Вид битрейта : Постоянный
    Битрейт : 448 Кбит/сек
    Каналы : 6 каналов
    Расположение каналов : Front: L C R, Side: L R, LFE
    Частота : 48, 0 КГц
    Битовая глубина : 16 бит
    Метод сжатия : С потерями
    Размер потока : 389 Мбайт (17%)
    Выравнивание : Разделение по промежуткам
    Продолжительность промежутка : 42 мс. (1, 00 видеокадр)
    Время предзагрузки промежутка : 500 мс.
    Заголовок : Авторский Д.Есарев (нецензурный)

    Скриншоты:

    Залил: ?KEN?

    Онлайн видео Убийца


    Размер скачиваемого торрента: 2.20 GB (2359136256 Bytes)

    Убийца/Sicario (2015) HDRip от NNM-CLUB | D, A
    загрузка...
    Рейтинг →
     (голосов: 1, оценка 5/5, голосовать можно 1 раз )

    Другие торренты по теме:

  • Убийца / Sicario (2015) HDRip | Звук с CAMRip
  • Убийца / Sicario (2015) HDRip | Есарев
  • Убийца / Sicario (2015) НDRip | Есарев
  • Убийца / Sicario (2015) HDRip от Scarabey | Без Цензуры | Есарев
  • Убийца / Sicario (2015) BDRip 1080p | Чистый звук
  • Убийца / Sicario (2015) BDRip 720p от Scarabey | Есарев
  • Убийца / Sicario (2015) BDRip 1080p от NNNB | A
  • Убийца / Sicario (2015) BDRip-AVC от NNNB | A


    • Комментарии (0):

      Информация

      Информация

        Посетители, находящиеся в группе Гости, не могут оставлять комментарии в данной новости.

        ↓ Меню



        ↓ Опрос

        А Вы добавили сайт в закладки?
        Да
        Не


        Top 10 за месяц (Фильмы)