.
Авторизация | Регистрация
» » Новые приключения Аладдина / Les nouvelles aventures dAladin (2015) BDRip 720p | iTunes скачать торрент бесплатно




    Новые приключения Аладдина / Les nouvelles aventures dAladin (2015) BDRip 720p | iTunes скачать торрент бесплатно

    Опубликовал: Админ | Дата: 17-03-2016, 05:00 | Просмотров: 80



    Детально о кино
    Русское название: Новые приключения Аладдина
    Русское название в мировом прокате: Les nouvelles aventures d;Aladin
    Создали в: 2015
    Категория жанра: комедия
    Главный режиссер: Артур Бензакен

    Актеры
    Кев Адамс, Жан-Поль Рув, Ванесса Гуид, Уилльям Лебхил, Одри Лами, Артур Бензакен, Эрик Жюдор, Мишель Блан, Рамзи Бедиа, Надер Буссандель

    Сюжет фильма
    Думаете, вы знаете историю про Аладдина? Как бы не так, оказывается у этой истории еще много неизвестных страниц. Мы расскажем вам эту сказку совершенно по-новому, добро пожаловать в самое сердце Багдада — города тысячи сокровищ, где на улицах летают ковры-самолеты, колдуны предлагают зелья для омоложения, а в замке томится принцесса, которая иногда тайком выбирается в город, где как раз и орудует находчивый и предприимчивый воришка по имени Аладдин…


    Снималось в: Франция, Бельгия
    Время просмотра: 01: 45: 45
    Тип перевода: Дублированное iTunes
    Файл
    Тип видео: MKV
    Качество фильма: BDRip 720p
    Информация о видео: MPEG-4 AVC, 4410 kb/s, 1280x536
    Информация о звуке: Russian: AC3, 384 kb/s (6 ch)/French: DTS, 1509 kb/s (6 ch)
    MI

    Format : Matroska
    Format version : Version 2
    File size : 4.66 GiB
    Duration : 1h 45mn
    Overall bit rate : 6 302 Kbps
    Encoded date : UTC 2016-03-16 20: 21: 38
    Writing application : mkvmerge v7.8.0 (;River Man;) 32bit built on Apr 3 2015 12: 11: 22
    Writing library : libebml v1.3.1 + libmatroska v1.4.2
    Video
    ID : 1
    Format : AVC
    Format/Info : Advanced Video Codec
    Format profile : High@L4.1
    Format settings, CABAC : Yes
    Format settings, ReFrames : 5 frames
    Codec ID : V_MPEG4/ISO/AVC
    Duration : 1h 45mn
    Bit rate : 4 410 Kbps
    Width : 1 280 pixels
    Height : 536 pixels
    Display aspect ratio : 2.40: 1
    Frame rate mode : Constant
    Frame rate : 24.000 fps
    Color space : YUV
    Chroma subsampling : 4: 2: 0
    Bit depth : 8 bits
    Scan type : Progressive
    Bits/(Pixel*Frame) : 0.268
    Stream size : 3.16 GiB (68%)
    Writing library : x264 core 148 r2665 a01e339
    Encoding settings : cabac=1/ref=5/deblock=1: 0: 0/analyse=0x3: 0x113/me=umh/subme=8/psy=1/psy_rd=1.00: 0.00/mixed_ref=1/me_range=16/chroma_me=1/trellis=1/8x8dct=1/cqm=0/deadzone=21, 11/fast_pskip=1/chroma_qp_offset=-2/threads=12/lookahead_threads=2/sliced_threads=0/nr=0/decimate=1/interlaced=0/bluray_compat=0/constrained_intra=0/bframes=3/b_pyramid=2/b_adapt=2/b_bias=0/direct=3/weightb=1/open_gop=0/weightp=2/keyint=250/keyint_min=24/scenecut=40/intra_refresh=0/rc_lookahead=50/rc=2pass/mbtree=1/bitrate=4410/ratetol=1.0/qcomp=0.60/qpmin=0/qpmax=69/qpstep=4/cplxblur=20.0/qblur=0.5/ip_ratio=1.40/aq=1: 1.00
    Language : English
    Default : Yes
    Forced : No
    Audio #1
    ID : 2
    Format : AC-3
    Format/Info : Audio Coding 3
    Mode extension : CM (complete main)
    Format settings, Endianness : Big
    Codec ID : A_AC3
    Duration : 1h 45mn
    Bit rate mode : Constant
    Bit rate : 384 Kbps
    Channel(s) : 6 channels
    Channel positions : Front: L C R, Side: L R, LFE
    Sampling rate : 48.0 KHz
    Bit depth : 16 bits
    Compression mode : Lossy
    Stream size : 290 MiB (6%)
    Language : Russian
    Default : Yes
    Forced : No
    Audio #2
    ID : 3
    Format : DTS
    Format/Info : Digital Theater Systems
    Mode : 16
    Format settings, Endianness : Big
    Codec ID : A_DTS
    Duration : 1h 45mn
    Bit rate mode : Constant
    Bit rate : 1 509 Kbps
    Channel(s) : 6 channels
    Channel positions : Front: L C R, Side: L R, LFE
    Sampling rate : 48.0 KHz
    Bit depth : 24 bits
    Compression mode : Lossy
    Stream size : 1.11 GiB (24%)
    Language : French
    Default : No
    Forced : No
    Menu
    00: 00: 00.000 : en: 00: 00: 00.000
    00: 07: 02.542 : en: 00: 07: 02.542
    00: 12: 41.750 : en: 00: 12: 41.750
    00: 21: 19.292 : en: 00: 21: 19.292
    00: 26: 46.708 : en: 00: 26: 46.708
    00: 36: 44.000 : en: 00: 36: 44.000
    00: 40: 41.333 : en: 00: 40: 41.333
    00: 45: 36.667 : en: 00: 45: 36.667
    00: 49: 55.042 : en: 00: 49: 55.042
    00: 55: 58.750 : en: 00: 55: 58.750
    01: 04: 55.208 : en: 01: 04: 55.208
    01: 07: 54.458 : en: 01: 07: 54.458
    01: 17: 07.833 : en: 01: 17: 07.833
    01: 22: 01.625 : en: 01: 22: 01.625
    01: 32: 15.625 : en: 01: 32: 15.625
    01: 41: 03.125 : en: 01: 41: 03.125
    Скриншоты






    Онлайн видео Новые приключения Аладдина


    Размер скачиваемого торрента: 4.66 GB (4998528510 Bytes)

    Новые приключения Аладдина/Les nouvelles aventures dAladin (2015) BDRip 720p | iTunes
    загрузка...
    Рейтинг →
     (голосов: 1, оценка 5/5, голосовать можно 1 раз )

    Другие торренты по теме:

  • Смешарики. Новые приключения. Выпуск 1. Шуша (Новогоднее издание) (2012) DVDRip от hitway торрент скачать бесплатно
  • Смешарики. Новые приключения. Выпуск 1. Шуша - Новогоднее издание (2012) DVD-5 торрент скачать бесплатно
  • Новые приключения Лесси / The New Lassie (1989 – 1991) TVRip торрент скачать бесплатно
  • Возвращение блудного попугая / Новые приключения попугая Кеши (1988-2005) DVDRip от Torrent-Xzona | КПК торрент скачать бесплатно
  • Союзмультфильм. Сборник 2. Новые приключения попугая Кеши (2005-2007) BDRip 1080p торрент скачать бесплатно
  • Смешарики. Новые приключения. (2013) IPTVRip торрент скачать бесплатно
  • Смешарики. Новые приключения. Выпуск 1 Шуша (2012-2013) 2xDVD5 от Youtracker | Лицензия торрент скачать бесплатно
  • Новак Оксана - Новые приключения Пышки на сайте знакомств. Отвязные домохозяйки (2012) MP3 торрент скачать бесплатно


    • Комментарии (0):

      Информация

      Информация

        Посетители, находящиеся в группе Гости, не могут оставлять комментарии в данной новости.

        ↓ Меню



        ↓ Опрос

        А Вы добавили сайт в закладки?
        Да
        Не


        Top 10 за неделю (Фильмы)