.
Авторизация | Регистрация
Хочешь лучшие торренты? Добавь свой email!
Добавить
» » Незабываемое / Unforgettable (1996) HDRip от Leon-masl | A торрент скачать бесплатно




    Незабываемое / Unforgettable (1996) HDRip от Leon-masl | A торрент скачать бесплатно

    Опубликовал: Админ | Дата: 21-03-2016, 15:39 | Просмотров: 68



    Детально о кино
    Русское название: Незабываемое
    Русское название в мировом прокате: Unforgettable
    Создали в: 1996
    Категория жанра: фантастика, триллер, драма
    Главный режиссер: Джон Дал

    Актеры
    Рэй Лиотта, Линда Фиорентино, Питер Койот, Кристофер МакДональд, Дэвид Пэймер, Дункан Фрайзер, Кэролайн Эллиотт, Коллин Реннисон, Ким Кэтролл, Стеллина Русиш

    Сюжет фильма

    Жена судмедэксперта Дэвида Крэйна была зверски убита, а сам Дэвид в состоянии алкогольного опьянения находился рядом, где и был задержан полицией. Суд снял с Дэвида обвинение в убийстве, но лишил его права воспитывать детей.
    Случайно услышав доклад нейробиолога Марты Бриггс, Дэвид принимает решение стать подопытной крысой. Дело в том, что, если ввести себе спинномозговую жидкость мертвого человека, то можно видеть произошедшее перед смертью его глазами. Несколько инъекций, и Дэвид раскрывает жуткое преступление. Однако, жизнь самого Дэвида теперь висит на волоске - выберется он из этого эксперимента или погибнет, как погибает каждое восьмое подопытное животное?

    Снималось в: США
    Киностудия: Dino De Laurentiis Company, Metro-Goldwyn-Mayer (MGM), Spelling Films
    Время просмотра: 01: 56: 47
    Перевод текста: Авторский (одноголосый закадровый) - Пётр Карцев
    Файл
    Кодек для видео: XviD
    Качество фильма: HDRip
    Информация о видео: 704x384, 23, 976 fps, XviD build 73 ~ 1590 kbps
    Информация о звуке : 48 kHz, AC3 Dolby Digital, 2/0 (L, R) ch, ~192 kbps - Карцев
    MI
    Общее
    Полное имя : Unforgettable.1996.HDRip.avi
    Формат : AVI
    Формат/Информация : Audio Video Interleave
    Размер файла : 1, 46 Гбайт
    Продолжительность : 1 ч. 56 м.
    Общий поток : 1791 Кбит/сек
    Программа кодирования : VirtualDubMod 1.5.10.3 | www.virtualdub-fr.org || (build 2550/release)
    Библиотека кодирования : VirtualDubMod build 2550/release
    Видео
    Идентификатор : 0
    Формат : MPEG-4 Visual
    Профиль формата : Advanced Simple@L5
    Параметр BVOP формата : 2
    Параметр QPel формата : Нет
    Параметр GMC формата : Без точки перехода
    Параметр матрицы формата : Выборочная
    Идентификатор кодека : XVID
    Идентификатор кодека/Подсказка : XviD
    Продолжительность : 1 ч. 56 м.
    Битрейт : 1590 Кбит/сек
    Ширина : 704 пикс.
    Высота : 384 пикс.
    Соотношение сторон : 16: 9
    Частота кадров : 23, 976 кадр/сек
    Цветовое пространство : YUV
    Подвыборка цветности : 4: 2: 0
    Битовая глубина : 8 бит
    Тип развёртки : Прогрессивная
    Метод сжатия : С потерями
    Бит/(Пиксели*Кадры) : 0.245
    Размер потока : 1, 30 Гбайт (89%)
    Библиотека кодирования : XviD 73
    Аудио
    Идентификатор : 1
    Формат : AC-3
    Формат/Информация : Audio Coding 3
    Расширение режима : CM (complete main)
    Идентификатор кодека : 2000
    Продолжительность : 1 ч. 56 м.
    Вид битрейта : Постоянный
    Битрейт : 192 Кбит/сек
    Канал(ы) : 2 канала(ов)
    Расположение каналов : Front: L R
    Частота : 48, 0 КГц
    Битовая глубина : 16 бит
    Метод сжатия : С потерями
    Размер потока : 160 Мбайт (11%)
    Выравнивание : Разделение по промежуткам
    Продолжительность промежутка : 42 мс. (1, 00 видеокадр)
    Время предзагрузки промежутка : 500 ms
    Скриншоты

    Релиз подготовил: Leon-masl
    Залил: leon-masl

    Онлайн видео Незабываемое


    Размер скачиваемого торрента: 1.46 GB (1568608256 Bytes)

    Незабываемое/Unforgettable (1996) HDRip от Leon-masl | A
    загрузка...
    Рейтинг →
     (голосов: 1, оценка 5/5, голосовать можно 1 раз )

    Другие торренты по теме:

  • Незабываемое / Unforgettable (1996) DVDRip | Р
  • Помнить все / Незабываемое / Unforgettable (2013) HDTVRip | napaBo3uk
  • Помнить все / Незабываемое / Unforgettable (2013-2014) WEB-DLRip 720p, HDTVRip 720p | SET, NewStudio
  • Помнить все / Незабываемое / Unforgettable (2013-2014) WEB-DLRip, HDTVRip | SET, NewStudio
  • Помнить все / Незабываемое / Unforgettable (2014) WEB-DLRip от MediaClub | P | SET
  • Помнить все / Незабываемое / Unforgettable (2014) WEB-DL 720p от MediaClub | P | SET
  • Помнить всё (Незабываемое) / Unforgettable
  • Помнить всё / Незабываемое / Unforgettable (2014) HDTVRip 720p от Brazzass | Sub скачать через торрент бесплатно


    • Комментарии (0):

      Информация

      Информация

        Посетители, находящиеся в группе Гости, не могут оставлять комментарии в данной новости.

        ↓ Меню



        ↓ Опрос

        А Вы добавили сайт в закладки?
        Да
        Не


        Top 10 за месяц (Фильмы)