.
Авторизация | Регистрация
» » Профессионал (2014) HDTV 1080i от GeneralFilm скачать торрент бесплатно




    Профессионал (2014) HDTV 1080i от GeneralFilm скачать торрент бесплатно

    Опубликовал: Админ | Дата: 22-03-2016, 15:18 | Просмотров: 59



    Детально о кино
    Русское название в мировом прокате: Профессионал
    Создали в: 2014
    Категория жанра: Боевик
    Главный режиссер: Алан Дзоциев

    Актеры
    Алексей Лобанов, Константин Стрельников, Игорь Лагутин, Евгения Игумнова, Сергей Юшкевич, Андрей Горбачёв, Юрий Батурин, Анатолий Лобоцкий, Мария Решавская, Владимир Артемов, Валерий Баринов, Сергей Жигунов, Юрий Ицков, Михаил Черняк, Александр Марушев, Сергей Амосов, Руслан Барабанов, Анатолий Ильченко, Алексей Федотов, Руслан Кацагаджиев

    Сюжет фильма

    Сбежав из тюрьмы в Джакарте, где он провёл в заключении долгих четырнадцать лет, разведчик Андрей Зубов возвращается на родину, чтобы найти причины провала своей опергруппы и наказать виновников гибели жены. Преодолев тысячи километров, Зубов вынужден столкнуться с новым предательством, он становится объектом преследования своих бывших коллег, среди которых многие заинтересованы в том, чтобы он замолчал и исчез навсегда. Но, благодаря помощи новых и старых друзей, ему всё-таки удаётся невозможное - настоящий профессионал в своём деле, Зубов вступает в борьбу с преступной системой и побеждает её. Но многие вопросы, мучающие Андрея, так и остаются без ответа...
    Снималось в: Россия
    Киностудия: Студия Панорама
    Время просмотра: 10 x ~ 00: 45: 00
    Перевод текста: Не требуется
    Файл
    Качество фильма: HDTV (1080i)
    Информация о видео: MPEG-4 AVC, ~ 6.1 Mбит/с, 1920x1080
    Информация о звуке: MP2, 2 ch, 192 Кбит/с
    МедиаИнфо
    Общее
    Идентификатор : 1 (0x1)
    Полное имя : Professional.2014.HDTV.1080i.by.GeneralFilmSerija.01.ts
    Формат : MPEG-TS
    Размер файла : 2, 05 Гбайт
    Продолжительность : 44 м.
    Режим общего битрейта : Переменный
    Общий поток : 6644 Кбит/сек
    Видео
    Идентификатор : 201 (0xC9)
    Идентификатор меню : 2201 (0x899)
    Формат : AVC
    Формат/Информация : Advanced Video Codec
    Профиль формата : High@L4
    Параметр CABAC формата : Да
    Параметр ReFrames формата : 4 кадра
    Идентификатор кодека : 27
    Продолжительность : 44 м.
    Битрейт : 6121 Кбит/сек
    Ширина : 1920 пикселей
    Высота : 1080 пикселей
    Соотношение сторон : 16: 9
    Частота кадров : 25, 000 кадров/сек
    Стандарт вещания : Component
    Цветовое пространство : YUV
    Субдискретизация насыщенности : 4: 2: 0
    Битовая глубина : 8 бит
    Тип развёртки : Чересстрочная
    Метод сохранения типа развёртки : Раздельные поля
    Порядок развёртки : Верхнее поле первое
    Бит/(Пиксели*Кадры) : 0.118
    Размер потока : 1, 89 Гбайт (92%)
    Цветовой диапазон : Limited
    Основные цвета : BT.709
    Характеристики трансфера : BT.709
    Коэффициенты матрицы : BT.709
    Аудио
    Идентификатор : 301 (0x12D)
    Идентификатор меню : 2201 (0x899)
    Формат : MPEG Audio
    Версия формата : Version 1
    Профиль формата : Layer 2
    Идентификатор кодека : 3
    Продолжительность : 44 м.
    Вид битрейта : Постоянный
    Битрейт : 192 Кбит/сек
    Каналы : 2 канала
    Частота : 48, 0 КГц
    Метод сжатия : С потерями
    Задержка видео : -40 мс.
    Размер потока : 60, 7 Мбайт (3%)
    Язык : English

    Скриншоты



    Релиз подготовил:
    Залил: vsobbol
    Размер скачиваемого торрента: 19.72 GB (21178359424 Bytes)

    Профессионал (2014) HDTV 1080i от GeneralFilm
    загрузка...
    Рейтинг →
     (голосов: 1, оценка 4/5, голосовать можно 1 раз )

    Другие торренты по теме:

  • Профессионал (2014) HDTV 1080i от GeneralFilm скачать торрент бесплатно


    • Комментарии (0):

      Информация

      Информация

        Посетители, находящиеся в группе Гости, не могут оставлять комментарии в данной новости.

        ↓ Меню



        ↓ Опрос

        А Вы добавили сайт в закладки?
        Да
        Не


        Top 10 за неделю (Фильмы)