.
Авторизация | Регистрация
» » Вихри враждебные (1953) DVDRip от New-Team скачать торрент бесплатно




    Вихри враждебные (1953) DVDRip от New-Team скачать торрент бесплатно

    Опубликовал: Админ | Дата: 23-03-2016, 13:42 | Просмотров: 147



    Снималось в: СССР
    Создали в: Мосфильм
    Категория жанра: драма, биография
    Создали в: 1953
    Время просмотра: 01: 36: 52
    Перевод текста: Не требуется
    Субтитры подготовлены: нет
    Оригинальная аудиодорожка: русский
    Главный режиссер: Михаил Калатозов

    Актеры

    Владимир Емельянов, Михаил Кондратьев, Михаил Геловани, Леонид Любашевский, Владимир Соловьёв, Иван Любезнов, Алла Ларионова, Виктор Авдюшко, Георгий Юматов, Владимир Борискин, Игорь Безяев, Сергей Лукьянов, Сергей Ромоданов, Пётр Мухин, Андрей Попов, Николай Гриценко, Александр Хохлов, Григорий Кириллов, Олег Жаков, Антоний Ходурский, Алексей Коротюков...
    Полный список актёров
    Описание:
    О первых годах становления Советской власти, о жизни и деятельности Ф.Дзержинского в 1918-1925 годах.
    Июль 1918 года. Нпачинается левоэсеровский мятеж. Убит германский посол Мирбах. Феликс Дзержинский в одиночку отправляется в штаб левых эсеров и анархистов. Ему удаётся склонить на свою сторону простых солдат и матросов, участников мятежа. Они сами расправляются со своими главарями. Арестованы иностранные послы, организовавшие заговор, возглавленный британским посланником Локкартом.
    В 1921 году партия направляет Дзержинского на борьбу с беспризорщиной. Узнав, где скрываются в Москве безспризорники по ночам, Дзержинский один отправлялся в их притон и быстро и легко овладевал доверием ребят. Уже после десятиминутного разговора эти дети голода и лишений, войны и разрухи, приученные своей жизнью к чему угодно, только не к доверчивости, устремлялись за Дзержинским к зданию ВЧК. Правда, до дверей доходили не все, но уж те, кто оставался, немедленно и прочно вступали на верную дорогу и приводили на неё остальных.
    1925 год. Бывшие беспризорники, закончив учёбу, отправляются на строительство Югостали, крупнейшего промышленного комбината на Украине. В руководство предприятия пробрались враги, они всячески тормозят строительство...
    Фильм закончили уже после смерти Сталина и положили на полку. В 1956 году картину перемонтировали. Из неё изъяли сцену, в которой комсомольцев, уезжающих работать на Югосталь, напутствует Сталин. Сталина заменили Дзержинским. Но получилась маленькая накладка. Такого всеобщего порыва, как показано в фильме, Дзержинский, конечно, вызывать не мог. Об этом случае вспоминала актриса Алла Ларионова.



    Источник: DVD9 R5
    Качество фильма видео: DVDRip
    Тип видео видео: AVI
    Информация о видео: 688x512 (4: 3), 25 fps, XviD ~ 1998 kbps avg, 0.227 bit/pixel
    Информация о звуке: 48 kHz, Dolby Digital AC3 2.0, 192 kbps
    Раздача от:
    MediaInfo

    Общее
    Полное имя : Vihri.vrazhdebnye.1953.DVDRip_New-team_by_AVP_Studio.avi
    Формат : AVI
    Формат/Информация : Audio Video Interleave
    Размер файла : 1, 49 Гбайт
    Продолжительность : 1 ч. 36 м.
    Общий поток : 2199 Кбит/сек
    Программа кодирования : VirtualDubMod 1.5.10.3 | www.virtualdub-fr.org || (build 2550/release)
    Библиотека кодирования : VirtualDubMod build 2550/release
    Видео
    Идентификатор : 0
    Формат : MPEG-4 Visual
    Профиль формата : Advanced Simple@L5
    Параметр BVOP формата : 1
    Параметр QPel формата : Нет
    Параметр GMC формата : Без точки перехода
    Параметр матрицы формата : Выборочная
    Идентификатор кодека : XVID
    Идентификатор кодека/Подсказка : XviD
    Продолжительность : 1 ч. 36 м.
    Битрейт : 1998 Кбит/сек
    Ширина : 688 пикселей
    Высота : 512 пикселей
    Соотношение сторон : 4: 3
    Частота кадров : 25, 000 кадров/сек
    Цветовое пространство : YUV
    Субдискретизация насыщенности : 4: 2: 0
    Битовая глубина : 8 бит
    Тип развёртки : Прогрессивная
    Метод сжатия : С потерями
    Бит/(Пиксели*Кадры) : 0.227
    Размер потока : 1, 35 Гбайт (91%)
    Библиотека кодирования : XviD 1.2.1 (UTC 2008-12-04)
    Аудио
    Идентификатор : 1
    Формат : AC-3
    Формат/Информация : Audio Coding 3
    Расширение режима : CM (complete main)
    Параметр Endianness формата : Big
    Идентификатор кодека : 2000
    Продолжительность : 1 ч. 36 м.
    Вид битрейта : Постоянный
    Битрейт : 192 Кбит/сек
    Каналы : 2 канала
    Расположение каналов : Front: L R
    Частота : 48, 0 КГц
    Частота кадров : 31, 250 кадров/сек (1536 spf)
    Метод сжатия : С потерями
    Размер потока : 133 Мбайт (9%)
    Выравнивание : Разделение по промежуткам
    Продолжительность промежутка : 40 мс. (1, 00 видеокадр)
    Время предзагрузки промежутка : 500 мс

    Скриншоты



    Залил: AVPStudio

    Онлайн видео Вихри враждебные (1953) DVDRip от New


    Размер скачиваемого торрента: 1.49 GB (1597859840 Bytes)

    Вихри враждебные (1953) DVDRip от New-Team
    загрузка...
    Рейтинг →
     (голосов: 1, оценка 4/5, голосовать можно 1 раз )

    Другие торренты по теме:

  • Юлиан Семёнов - Майор Вихрь (2007) MP3 торрент скачать бесплатно
  • Роберт Чарльз Уилсон - Вихрь (2011) FB2 торрент скачать бесплатно
  • Вихры - Магнитоальбом (1992) FLAC торрент скачать бесплатно
  • Подвиды 4: Кровавая буря (Кровавый вихрь) (Кровавый шторм) / Subspecies 4: Bloodstorm / 1998 / АП (Живов) / DVDRip скачать торрент бесплатно
  • Вихрь 3: Уличный монах / Circuit 3: The Street Monk / 2006 / ЛО / DVDRip скачать торрент бесплатно
  • Роберт Чарльз Уилсон – Вихрь (2016) MP3 скачать торрент бесплатно
  • Вихрь / Slipstream (2007) BDRip от HQCLUB скачать торрент бесплатно


    • Комментарии (0):

      Информация

      Информация

        Посетители, находящиеся в группе Гости, не могут оставлять комментарии в данной новости.

        ↓ Меню



        ↓ Опрос

        А Вы добавили сайт в закладки?
        Да
        Не


        Top 10 за неделю (Фильмы)