.
Авторизация | Регистрация
Хочешь лучшие торренты? Добавь свой email!
Добавить
» » Как заниматься любовью по-английски / How to Make Love Like an Englishman (2014) BDRip 720p торрент скачать бесплатно




    Как заниматься любовью по-английски / How to Make Love Like an Englishman (2014) BDRip 720p торрент скачать бесплатно

    Опубликовал: Админ | Дата: 26-03-2016, 05:00 | Просмотров: 90



    Детально о кино
    Русское название: Как заниматься любовью по-английски
    Русское название в мировом прокате: How to Make Love Like an Englishman
    Снималось в: США
    Киностудия: PalmStar Media, Southpaw Entertainment, Irish DreamTime
    Категория жанра: мелодрама, комедия
    Создали в: 2014
    Время просмотра: 01: 39: 22
    Перевод текста: Профессиональный (дублированный) - IPTV
    Субтитры подготовлены: английские
    Оригинальная аудиодорожка: английский
    Главный режиссер: Том Вон/Tom Vaughan

    В ролях:
    Пирс Броснан, Сальма Хайек, Джессика Альба, Малкольм МакДауэлл, Дункан Джойнер, Бен МакКензи, Меррин Данги, Фред Меламед, Иван Сергей, Ломбардо Бойяр

    Описание фильма
    Сюжет фильма вращается вокруг профессора Кембриджского университета, избравшего в качестве своего девиза изречение уайльдовского лорда Генри из Портрета Дориана Грея: Единственный способ отделаться от искушения - уступить ему. Но однажды в жизни героя появляется молодая женщина, ради которой он решает пересмотреть личные приоритеты и подавить гедонистические наклонности. И все бы хорошо, вот только сводная сестра новой возлюбленной профессора ждет от него ребенка.

    Тип релиза: BDRip 720p
    Контейнер: MKV
    Информация о видео: MPEG-4 AVC, 5008 Кбит/с, 1280x536, 23, 976 fps
    Информация о звуке 1: Rus, AC3, 384 kb/s (6 ch), 48 kHz
    Информация о звуке 2: Eng, AC3, 640 kb/s (6 ch), 48 kHz
    Тип видео субтитров: softsub (SRT)
    MI
    Общее
    Уникальный идентификатор : 248753940000690543426933851261577836278 (0xBB244424946E4C14866A22F7032DB6F6)
    Полное имя : How to Make Love Like an Englishman 2014 BDRip 720p.mkv
    Формат : Matroska
    Версия формата : Version 4/Version 2
    Размер файла : 4, 27 Гбайт
    Продолжительность : 1 ч. 39 м.
    Общий поток : 6149 Кбит/сек
    Название фильма : filin1984
    Дата кодирования : UTC 2016-03-25 19: 36: 43
    Программа кодирования : mkvmerge v6.9.1 (;Blue Panther;) 32bit built on Apr 18 2014 18: 15: 44
    Библиотека кодирования : libebml v1.3.0 + libmatroska v1.4.1
    Видео
    Идентификатор : 1
    Формат : AVC
    Формат/Информация : Advanced Video Codec
    Профиль формата : High@L4.1
    Параметр CABAC формата : Да
    Параметр ReFrames формата : 12 кадров
    Идентификатор кодека : V_MPEG4/ISO/AVC
    Продолжительность : 1 ч. 39 м.
    Битрейт : 5003 Кбит/сек
    Ширина : 1280 пикселей
    Высота : 536 пикселей
    Соотношение сторон : 2, 40: 1
    Режим частоты кадров : Постоянный
    Частота кадров : 23, 976 (24000/1001) кадра/сек
    Цветовое пространство : YUV
    Субдискретизация насыщенности : 4: 2: 0
    Битовая глубина : 8 бит
    Тип развёртки : Прогрессивная
    Бит/(Пиксели*Кадры) : 0.304
    Размер потока : 3, 47 Гбайт (81%)
    Заголовок : Tonik
    Библиотека кодирования : x264 core 148 r2638 7599210
    Настройки программы : cabac=1/ref=12/deblock=1: -3: -3/analyse=0x3: 0x133/me=umh/subme=10/psy=1/psy_rd=1.00: 0.00/mixed_ref=1/me_range=32/chroma_me=1/trellis=2/8x8dct=1/cqm=0/deadzone=21, 11/fast_pskip=0/chroma_qp_offset=-2/threads=6/lookahead_threads=1/sliced_threads=0/nr=0/decimate=0/interlaced=0/bluray_compat=0/constrained_intra=0/bframes=11/b_pyramid=2/b_adapt=2/b_bias=0/direct=3/weightb=1/open_gop=0/weightp=2/keyint=250/keyint_min=24/scenecut=40/intra_refresh=0/rc_lookahead=60/rc=crf/mbtree=0/crf=15.6/qcomp=0.65/qpmin=0/qpmax=69/qpstep=4/vbv_maxrate=62500/vbv_bufsize=78125/crf_max=0.0/nal_hrd=none/filler=0/ip_ratio=1.30/pb_ratio=1.20/aq=3: 0.72/zones=0, 800, crf=15/26248, 26756, crf=15/124168, 124515, crf=15/135408, 142952, crf=20
    Язык : English
    Default : Да
    Forced : Нет
    Аудио #1
    Идентификатор : 2
    Формат : AC-3
    Формат/Информация : Audio Coding 3
    Расширение режима : CM (complete main)
    Параметр Endianness формата : Big
    Идентификатор кодека : A_AC3
    Продолжительность : 1 ч. 39 м.
    Вид битрейта : Постоянный
    Битрейт : 384 Кбит/сек
    Каналы : 6 каналов
    Расположение каналов : Front: L C R, Side: L R, LFE
    Частота : 48, 0 КГц
    Частота кадров : 31, 250 кадров/сек (1536 spf)
    Метод сжатия : С потерями
    Размер потока : 273 Мбайт (6%)
    Язык : Russian
    Default : Да
    Forced : Нет
    Аудио #2
    Идентификатор : 3
    Формат : AC-3
    Формат/Информация : Audio Coding 3
    Расширение режима : CM (complete main)
    Параметр Endianness формата : Big
    Идентификатор кодека : A_AC3
    Продолжительность : 1 ч. 39 м.
    Вид битрейта : Постоянный
    Битрейт : 640 Кбит/сек
    Каналы : 6 каналов
    Расположение каналов : Front: L C R, Side: L R, LFE
    Частота : 48, 0 КГц
    Частота кадров : 31, 250 кадров/сек (1536 spf)
    Метод сжатия : С потерями
    Размер потока : 455 Мбайт (10%)
    Язык : English
    Default : Нет
    Forced : Нет
    Текст
    Идентификатор : 4
    Формат : UTF-8
    Идентификатор кодека : S_TEXT/UTF8
    Идентификатор кодека/Информация : UTF-8 Plain Text
    Заголовок : SDH
    Язык : English
    Default : Нет
    Forced : Нет
    Меню
    00: 00: 00.000 : en: 00: 00: 00.000
    00: 14: 50.723 : en: 00: 14: 50.723
    00: 28: 14.651 : en: 00: 28: 14.651
    00: 38: 55.792 : en: 00: 38: 55.792
    00: 54: 19.006 : en: 00: 54: 19.006
    01: 09: 42.553 : en: 01: 09: 42.553
    01: 18: 53.938 : en: 01: 18: 53.938
    01: 33: 27.852 : en: 01: 33: 27.852

    Скриншоты




    Онлайн видео Как заниматься любовью по-английски


    Размер скачиваемого торрента: 4.27 GB (4582962650 Bytes)

    Как заниматься любовью по-английски/How to Make Love Like an Englishman (2014) BDRip 720p
    загрузка...
    Рейтинг →
     (голосов: 1, оценка 4/5, голосовать можно 1 раз )

    Другие торренты по теме:

  • Как заниматься любовью по-английски / How to Make Love Like an Englishman (2014) HDRip | Чистый звук
  • Как заниматься любовью по-английски / How to Make Love Like an Englishman / 2014 / ДБ / BDRip (720p)
  • Как заниматься любовью по-английски / How to Make Love Like an Englishman (2014)


    • Комментарии (0):

      Информация

      Информация

        Посетители, находящиеся в группе Гости, не могут оставлять комментарии в данной новости.

        ↓ Меню



        ↓ Опрос

        А Вы добавили сайт в закладки?
        Да
        Не


        Top 10 за месяц (Фильмы)