.
Авторизация | Регистрация
» » Кухня (2012...) DVDRip, WEB-DLRip от New-Team скачать торрент бесплатно




    Кухня (2012...) DVDRip, WEB-DLRip от New-Team скачать торрент бесплатно

    Опубликовал: Админ | Дата: 1-04-2016, 12:55 | Просмотров: 75



    Вкусная комедия
    Снималось в: Россия/Yellow, Black White
    Категория жанра: комедия
    Создали в: 2012...
    Время просмотра: 00: 24: 00/серия
    Перевод текста: Не требуется
    Субтитры подготовлены: нет
    Оригинальная аудиодорожка: русский
    Главный режиссер: Дмитрий Дьяченко, Жора Крыжовников

    Актеры
    Дмитрий Назаров, Марк Богатырев, Дмитрий Нагиев, Юлия Такшина, Елена Подкаминская, Марина Могилевская, Виктор Хориняк, Никита Тарасов, Сергей Епишев, Ольга Кузьмина...
    Описание: Во все времена еда была рядом с людьми. Она искушает, вдохновляет, восхищает, отвращает. Но человек не может без еды, а значит тот, кто создает еду, может управлять миром…. Так думал Максим Лавров, когда шел осуществлять свою мечту — устраиваться поваром в один из самых дорогих ресторанов столицы. Мечта сбылась, вот только на деле все вышло не так вкусно. Шеф-повар ресторана Виктор Баринов — настоящая звезда гастрономического бомонда, знающая как угодить взыскательной публике. Оборотная сторона этого идеального образа — злоупотребление алкоголем, страсть к азартным играм и невыносимый характер. В гневе Баринов страшен, в загуле — неукротим. Арт-директор Виктория Гончарова — настоящая снежная королева, карьеристка с ледяным сердцем, однако именно с ней Макс проводит ночь до того, как пойти на новую работу. А вся команда поваров только и ждет промашки новичка, чтобы от души посмеяться.

    Качество фильма: DVDRip / 8 x DVD9 R5- лицензионные диски от CD Land + WEB-DL 720p
    Тип видео: AVI
    Информация о видео: 720x400 (16: 9), 25.000 fps, XviD ~ 1800 kbps avg, 0.250 bit/pixel
    Информация о звуке: 48 kHz, Dolby AC3, 2 ch, 192 kbps, русский
    Дополнительно: В раздаче присутствует бонусный фильм: Фильм о фильме. 5-й и 6-й сезон любимого сериалаы временные. По появлению DVD с этими сезон любимого сериалаами будут заменены.
    Раздача от:
    Внимание! Раздача ведётся путём добавления новых серий

    Внимание! Раздача ведётся путём добавления новых серий
    При каждом добавлении создаётся новый торрент. Чтобы начать докачку новой серии, пользователям необходимо сделать следующее:
    1) остановить скачивание,
    2) удалить старый торрент у себя из клиента (старые серии удалять не надо),
    3) скачать новый торрент и запустить его у себя в клиенте вместо старого, при этом указать клиенту путь в старую папку куда и должно происходить скачивание новых серий.
    Ваш клиент при этом должен произвести хеширование (проверку) старой папки (если не производит сам - помогите ему сделать это), и будет докачивать только те серии которых у вас ещё нет. Старые серии при этом не удаляются, а продолжают раздаваться!
    Eсли вы уже удалили старые серии, то предотвратить повторную закачку старых серий можно, отжав галочку в соответствующих местах при запуске нового торрента.

    MediaInfo

    Общее
    Формат : AVI
    Формат/Информация : Audio Video Interleave
    Размер файла : 385 Мбайт
    Продолжительность : 26 м.
    Общий поток : 2002 Кбит/сек
    Программа кодирования : VirtualDubMod 1.5.10.3 | www.virtualdub-fr.org || (build 2550/release)
    Библиотека кодирования : VirtualDubMod build 2550/release
    Видео
    Идентификатор : 0
    Формат : MPEG-4 Visual
    Профиль формата : Advanced Simple@L5
    Параметр BVOP формата : 1
    Параметр QPel формата : Нет
    Параметр GMC формата : Без точки перехода
    Параметр матрицы формата : Выборочная
    Идентификатор кодека : XVID
    Идентификатор кодека/Подсказка : XviD
    Продолжительность : 26 м.
    Битрейт : 1800 Кбит/сек
    Ширина : 720 пикселей
    Высота : 400 пикселей
    Соотношение сторон : 16: 9
    Частота кадров : 25, 000 кадров/сек
    Цветовое пространство : YUV
    Субдискретизация насыщенности : 4: 2: 0
    Битовая глубина : 8 бит
    Тип развёртки : Прогрессивная
    Метод сжатия : С потерями
    Бит/(Пиксели*Кадры) : 0.250
    Размер потока : 346 Мбайт (90%)
    Библиотека кодирования : XviD 73
    Аудио
    Идентификатор : 1
    Формат : AC-3
    Формат/Информация : Audio Coding 3
    Расширение режима : CM (complete main)
    Параметр Endianness формата : Big
    Идентификатор кодека : 2000
    Продолжительность : 26 м.
    Вид битрейта : Постоянный
    Битрейт : 192 Кбит/сек
    Каналы : 2 канала
    Расположение каналов : Front: L R
    Частота : 48, 0 КГц
    Битовая глубина : 16 бит
    Метод сжатия : С потерями
    Размер потока : 36, 9 Мбайт (10%)
    Выравнивание : Разделение по промежуткам
    Продолжительность промежутка : 40 мс. (1, 00 видеокадр)
    Время предзагрузки промежутка : 500 мс.

    Скриншоты:



    Торрент файл обновлен 31 марта 2016 года, добавлена 19-я серия 6-го сезон любимого сериалаа
    Размер скачиваемого торрента: 42.58 GB (45716465664 Bytes)

    Кухня (2012...) DVDRip, WEB-DLRip от New-Team
    загрузка...
    Рейтинг →
     (голосов: 1, оценка 4/5, голосовать можно 1 раз )

    Другие торренты по теме:

  • Кухня (2013) DVDRip от Youtracker | лицензия торрент скачать бесплатно
  • Кухня (2013) DVDRip-AVC от Youtracker | лицензия торрент скачать бесплатно
  • Кухня (2012) DVDRip от Generalfilm | КПК торрент скачать бесплатно
  • Кухня (1-5 сезоны: 1-100 серии из 100 + 2 бонуса) / 2012-2015 / РУ / DVDRip, WEB-DLRip скачать торрент бесплатно
  • Кухня (2012...) DVDRip от New-Team | лицензия скачать торрент бесплатно
  • Кухня (1-4 сезоны: 1-80 серии из 80 + бонус) / 2012-2014 / РУ / DVDRip скачать торрент бесплатно
  • Кухня (2012...) DVDRip-AVC, WEB-DLRip-AVC от New-Team скачать торрент бесплатно


    • Комментарии (0):

      Информация

      Информация

        Посетители, находящиеся в группе Гости, не могут оставлять комментарии в данной новости.

        ↓ Меню



        ↓ Опрос

        А Вы добавили сайт в закладки?
        Да
        Не


        Top 10 за неделю (Фильмы)