.
Авторизация | Регистрация
Хочешь лучшие торренты? Добавь свой email!
Добавить
» » Гонин / Gonin (1995) BDRip от Leon-masl | P2 | Directors Cut торрент скачать бесплатно




    Гонин / Gonin (1995) BDRip от Leon-masl | P2 | Directors Cut торрент скачать бесплатно

    Опубликовал: Админ | Дата: 2-04-2016, 05:00 | Просмотров: 108



    Детально о кино
    Русское название: Гонин
    Русское название в мировом прокате: Gonin
    Создали в: 1995
    Категория жанра: Боевик, драма, криминал
    Главный режиссер: Такаси Исии

    Актеры
    Коити Сато, Масахиро Мотоки, Джинпачи Незу, Киппэй Сина, Наото Такэнака, Такеши Китано, Кадзуя Кимура, Дайскэ Иидзима, Рё Ивамацу, Маико Каваками

    Сюжет фильма

    Герои этой картины переступили ту черту, за которой уже нечего терять. И каждому из них позарез нужны деньги: задолжавший бандитам владелец дискотеки, безработный конторский служащий, манерный вымогатель, сутенер-неврастеник и бывший полицейский…
    Однажды эти пятеро решили ограбить гангстеров. И не просто гангстеров, а банду Огоши — одну из самых влиятельных семей якудза в Осаке. В день налета им улыбнулась удача — дерзкий план сработал. К вечеру в руках грабителей-дилетантов уже была с кровью отвоеванная сумка с десятками миллионов йен. Но на этом подарки судьбы закончились: семья Огоши нанимает двух самых ужасных убийц в городе, от которых еще никто и никогда не уходил.

    Снималось в: Япония
    Время просмотра: 02: 01: 05
    Перевод текста: Профессиональный (двухголосый закадровый) Премьер Мультимедия
    Файл
    Кодек для видео: XviD
    Качество фильма: BDRip
    Информация о видео: 704x384, 23.976 fps, Xvid build 73 ~1527 kbps
    Информация о звуке: 48 kHz, AC3, 2/0 (L, R) ch, ~192.00 kbps
    MI
    Общее
    Полное имя : Gonin.1995.BDRip.avi
    Формат : AVI
    Формат/Информация : Audio Video Interleave
    Размер файла : 1, 46 Гбайт
    Продолжительность : 2 ч. 1 м.
    Общий поток : 1729 Кбит/сек
    Программа кодирования : VirtualDubMod 1.5.10.3 | www.virtualdub-fr.org || (build 2550/release)
    Библиотека кодирования : VirtualDubMod build 2550/release
    Видео
    Идентификатор : 0
    Формат : MPEG-4 Visual
    Профиль формата : Advanced Simple@L5
    Параметр BVOP формата : 2
    Параметр QPel формата : Нет
    Параметр GMC формата : Без точки перехода
    Параметр матрицы формата : Выборочная
    Идентификатор кодека : XVID
    Идентификатор кодека/Подсказка : XviD
    Продолжительность : 2 ч. 1 м.
    Битрейт : 1527 Кбит/сек
    Ширина : 704 пикс.
    Высота : 384 пикс.
    Соотношение сторон : 16: 9
    Частота кадров : 23, 976 кадр/сек
    Цветовое пространство : YUV
    Подвыборка цветности : 4: 2: 0
    Битовая глубина : 8 бит
    Тип развёртки : Прогрессивная
    Метод сжатия : С потерями
    Бит/(Пиксели*Кадры) : 0.236
    Размер потока : 1, 29 Гбайт (88%)
    Библиотека кодирования : XviD 73
    Аудио
    Идентификатор : 1
    Формат : AC-3
    Формат/Информация : Audio Coding 3
    Расширение режима : CM (complete main)
    Идентификатор кодека : 2000
    Продолжительность : 2 ч. 1 м.
    Вид битрейта : Постоянный
    Битрейт : 192 Кбит/сек
    Канал(ы) : 2 канала(ов)
    Расположение каналов : Front: L R
    Частота : 48, 0 КГц
    Битовая глубина : 16 бит
    Метод сжатия : С потерями
    Размер потока : 166 Мбайт (11%)
    Выравнивание : Разделение по промежуткам
    Продолжительность промежутка : 42 мс. (1, 00 видеокадр)
    Время предзагрузки промежутка : 500 ms
    Скриншоты

    Релиз подготовил: Leon-masl
    Залил: leon-masl
    Размер скачиваемого торрента: 1.46 GB (1569832960 Bytes)

    Гонин/Gonin (1995) BDRip от Leon-masl | P2 | Directors Cut
    загрузка...
    Рейтинг →
     (голосов: 1, оценка 5/5, голосовать можно 1 раз )

    Другие торренты по теме:

  • Гонин / Gonin (1995) DVDRip | Режиссерская версия
  • Гонин / Gonin (1995) HDRip от Scarabey | Режиссерская версия


    • Комментарии (0):

      Информация

      Информация

        Посетители, находящиеся в группе Гости, не могут оставлять комментарии в данной новости.

        ↓ Меню



        ↓ Опрос

        А Вы добавили сайт в закладки?
        Да
        Не


        Top 10 за месяц (Фильмы)