.
Авторизация | Регистрация
Хочешь лучшие торренты? Добавь свой email!
Добавить
» » Римский-Корсаков (1953) DVDRip от New-Team торрент скачать бесплатно




    Римский-Корсаков (1953) DVDRip от New-Team торрент скачать бесплатно

    Опубликовал: Админ | Дата: 2-04-2016, 13:02 | Просмотров: 91



    Снималось в: СССР
    Создали в: Ленфильм
    Категория жанра: драма, биография, музыка
    Создали в: 1953
    Время просмотра: 01: 47: 02
    Перевод текста: Не требуется
    Субтитры подготовлены: нет
    Оригинальная аудиодорожка: русский
    Главный режиссер: Геннадий Казанский, Григорий Рошаль

    Актеры

    Григорий Белов, Николай Черкасов, Александр Борисов, Лилия Гриценко, Виктор Хохряков, Анатолий Кузнецов (II), Лидия Сухаревская, Александр Огнивцев, Борис Коковкин, Сергей Курилов, Лидия Драновская, Анатолий Вербицкий, Татьяна Ленникова, Агаси Бабаян, Бруно Фрейндлих, Владимир Балашов, Фёдор Никитин...
    Полный список актёров
    Описание:
    Костюмный биографический фильм о Николае Андреевиче Римском-Корсакове (1844-1908), русском композиторе, дирижере и музыкально-общественном деятеле, одном из организаторов и вдохновителей Могучей кучки.



    Источник: DVD5 R5
    Качество фильма видео: DVDRip
    Тип видео видео: AVI
    Информация о видео: 576x480 (4: 3), 25 fps, XviD ~ 836 kbps avg, 0.134 bit/pixel
    Информация о звуке: 48 kHz, MP3 2.0, 128 kbps
    Раздача от:
    MediaInfo

    Общее
    Полное имя : Rimskiy-Korsakov.1953.DVDRip-745_New-team_by_AVP_Studio.avi
    Формат : AVI
    Формат/Информация : Audio Video Interleave
    Размер файла : 746 Мбайт
    Продолжительность : 1 ч. 47 м.
    Общий поток : 974 Кбит/сек
    Программа кодирования : VirtualDubMod 1.5.10.3 | www.virtualdub-fr.org || (build 2550/release)
    Библиотека кодирования : VirtualDubMod build 2550/release
    Видео
    Идентификатор : 0
    Формат : MPEG-4 Visual
    Профиль формата : Advanced Simple@L5
    Параметр BVOP формата : 1
    Параметр QPel формата : Нет
    Параметр GMC формата : Без точки перехода
    Параметр матрицы формата : Выборочная
    Идентификатор кодека : XVID
    Идентификатор кодека/Подсказка : XviD
    Продолжительность : 1 ч. 47 м.
    Битрейт : 836 Кбит/сек
    Ширина : 576 пикселей
    Высота : 432 пикселя
    Соотношение сторон : 4: 3
    Частота кадров : 25, 000 кадров/сек
    Цветовое пространство : YUV
    Субдискретизация насыщенности : 4: 2: 0
    Битовая глубина : 8 бит
    Тип развёртки : Прогрессивная
    Метод сжатия : С потерями
    Бит/(Пиксели*Кадры) : 0.134
    Размер потока : 640 Мбайт (86%)
    Библиотека кодирования : XviD 1.2.1 (UTC 2008-12-04)
    Аудио
    Идентификатор : 1
    Формат : MPEG Audio
    Версия формата : Version 1
    Профиль формата : Layer 3
    Идентификатор кодека : 55
    Идентификатор кодека/Подсказка : MP3
    Продолжительность : 1 ч. 47 м.
    Вид битрейта : Постоянный
    Битрейт : 128 Кбит/сек
    Каналы : 2 канала
    Частота : 48, 0 КГц
    Метод сжатия : С потерями
    Размер потока : 98, 0 Мбайт (13%)
    Выравнивание : Соединение по промежуткам
    Продолжительность промежутка : 40 мс. (1, 00 видеокадр)
    Время предзагрузки промежутка : 504 мс.
    Библиотека кодирования : LAME3.99r
    Залил: AVPStudio

    Онлайн видео Римский


    Размер скачиваемого торрента: 745.62 MB (781842432 Bytes)


    Римский-Корсаков (1953) DVDRip от New-Team
    загрузка...
    Рейтинг →
     (голосов: 1, оценка 3/5, голосовать можно 1 раз )

    Другие торренты по теме:



      Комментарии (0):

      Информация

      Информация

        Посетители, находящиеся в группе Гости, не могут оставлять комментарии в данной новости.

        ↓ Меню



        ↓ Опрос

        А Вы добавили сайт в закладки?
        Да
        Не


        Top 10 за месяц (Фильмы)