.
Авторизация | Регистрация
Хочешь лучшие торренты? Добавь свой email!
Добавить
» » Укротительница тигров (1954) DVDRip от New-Team торрент скачать бесплатно




    Укротительница тигров (1954) DVDRip от New-Team торрент скачать бесплатно

    Опубликовал: Админ | Дата: 6-04-2016, 16:14 | Просмотров: 86



    Снималось в: СССР
    Создали в: Ленфильм
    Категория жанра: мелодрама, комедия
    Создали в: 1954
    Время просмотра: 01: 35: 24
    Перевод текста: не требуется
    Оригинальная аудиодорожка: русский
    Субтитры подготовлены: нет
    Главный режиссер: Александр Ивановский, Надежда Кошеверова

    Актеры
    Людмила Касаткина, Павел Кадочников, Леонид Быков, Павел Суханов, Сергей Филиппов, Татьяна Пельтцер, Александр Орлов, Константин Сорокин, Гликерия Богданова-Чеснокова, Нина Ургант...
    Описание:
    Своей беззаветной влюбленностью в цирковое искусство Леночка Воронцова смогла заразить спортсмена-мотогонщика Федора Ермолаева. Они создают новаторский номер мотогонки под куполом цирка.
    Федор Ермолаев полюбил Леночку. Она, готова ответить ему взаимностью, но в последний момент отказывается от интересных гастролей, потому что руководство предложило ей стать дрессировщицей любимых тигров. Влюбленные расстаются, но не навсегда. Узнав о предстоящей премьере Леночкиного номера, Ермолаев на мотоцикле мчится через полстраны и успевает обнять любимую после успешного дебюта…



    Исходник: DVD5 R5
    Тип релиза: DVDRip
    Контейнер: AVI
    Информация о видео: 704x528 (4: 3), 25 fps, XviD ~ 1728 kbps avg, 0.186 bit/pixel
    Информация о звуке: 48 kHz, Dolby AC3 5.1, 448 kbps
    Раздача от:
    MediaInfo

    Общее
    Полное имя : Ukrotitel;nica.tigrov.1954.DVDRip_Youtracker_by_AVP Studio.avi
    Формат : AVI
    Формат/Информация : Audio Video Interleave
    Размер файла : 1, 46 Гбайт
    Продолжительность : 1 ч. 35 м.
    Общий поток : 2186 Кбит/сек
    Программа кодирования : VirtualDubMod 1.5.10.3 | www.virtualdub-fr.org || (build 2550/release)
    Библиотека кодирования : VirtualDubMod build 2550/release
    Видео
    Идентификатор : 0
    Формат : MPEG-4 Visual
    Профиль формата : Advanced Simple@L5
    Параметр BVOP формата : 1
    Параметр QPel формата : Нет
    Параметр GMC формата : Без точки перехода
    Параметр матрицы формата : Выборочная
    Идентификатор кодека : XVID
    Идентификатор кодека/Подсказка : XviD
    Продолжительность : 1 ч. 35 м.
    Битрейт : 1728 Кбит/сек
    Ширина : 704 пикселя
    Высота : 528 пикселей
    Соотношение сторон : 4: 3
    Частота кадров : 25, 000 кадров/сек
    Цветовое пространство : YUV
    Субдискретизация насыщенности : 4: 2: 0
    Битовая глубина : 8 бит
    Тип развёртки : Прогрессивная
    Метод сжатия : С потерями
    Бит/(Пиксели*Кадры) : 0.186
    Размер потока : 1, 15 Гбайт (79%)
    Библиотека кодирования : XviD 65
    Аудио
    Идентификатор : 1
    Формат : AC-3
    Формат/Информация : Audio Coding 3
    Расширение режима : CM (complete main)
    Идентификатор кодека : 2000
    Продолжительность : 1 ч. 35 м.
    Вид битрейта : Постоянный
    Битрейт : 448 Кбит/сек
    Каналы : 6 каналов
    Расположение каналов : Front: L C R, Side: L R, LFE
    Частота : 48, 0 КГц
    Битовая глубина : 16 бит
    Метод сжатия : С потерями
    Размер потока : 306 Мбайт (20%)
    Выравнивание : Разделение по промежуткам
    Продолжительность промежутка : 40 мс. (1, 00 видеокадр)
    Время предзагрузки промежутка : 500 мс

    Скриншоты



    Залил: AVPStudio

    Онлайн видео Укротительница тигров (1954) DVDRip от New


    Размер скачиваемого торрента: 1.46 GB (1563936768 Bytes)

    Укротительница тигров (1954) DVDRip от New-Team
    загрузка...
    Рейтинг →
     (голосов: 1, оценка 5/5, голосовать можно 1 раз )

    Другие торренты по теме:



      Комментарии (0):

      Информация

      Информация

        Посетители, находящиеся в группе Гости, не могут оставлять комментарии в данной новости.

        ↓ Меню



        ↓ Опрос

        А Вы добавили сайт в закладки?
        Да
        Не


        Top 10 за месяц (Фильмы)