.
Авторизация | Регистрация
» » Джой / Joy (2015) WEB-DLRip-AVC от Scarabey | iTunes скачать торрент бесплатно




    Джой / Joy (2015) WEB-DLRip-AVC от Scarabey | iTunes скачать торрент бесплатно

    Опубликовал: Админ | Дата: 10-04-2016, 05:01 | Просмотров: 90



    Создали в: 2015
    Снималось в: США
    Категория жанра: драма, комедия, биография
    Время просмотра: 02: 04: 19
    Перевод текста: Профессиональный (полное дублирование) iTunes
    Субтитры: нет
    Главный режиссер: Дэвид О. Расселл/David O. Russell

    Актеры
    Дженнифер Лоуренс, Роберт Де Ниро, Брэдли Купер, Эдгар Рамирес, Даша Поланко, Вирджиния Мэдсен, Изабелла Росселлини, Изабелла Крамп, Элизабет Рём, Ондреа Гадсби
    Описание: Волнующая история четырех поколений семьи. В центре сюжета — девушка Джой, превращающаяся в женщину, которая становится основательницей бизнес-династии и ее главой. Предательство и измена, потеря невинности и шрамы любви открывают дорогу в эмоциональную комедию о том, как стать истинным лидером семьи, и о том, как любое предприятие неумолимо сталкивается с миром коммерции. Союзники и противники меняются местами как внутри, так и вне семьи, и только внутренние переживания и неистовое воображение Джой помогают ей пройти через поджидающие ее жизненные бури.
    Качество фильма видео: WEB-DLRip-AVC
    Тип видео видео: AVI
    Информация о видео: 1024х554, 23.976 fps, AVC~2213 kbps avg, 0.155 bit/pixel
    Информация о звуке: 48 kHz, AC3 Dolby Digital, 3/2 (L, C, R, l, r) + LFE ch, ~384 kbps
    Релиз подготовил:
    АНОНСЫ МОИХ РАЗДАЧ!


    Скриншоты

    МедиаИнфо

    Joy.2015_AVC_WEB-DLRip_scarabey.org.mkv
    Format : Matroska
    Format version : Version 2
    File size : 2.17 GiB
    Duration : 2h 4mn
    Overall bit rate : 2 497 Kbps
    Encoded date : UTC 2016-04-08 14: 12: 45
    Writing application : mkvmerge v6.1.0 (;Old Devil;) built on Mar 4 2013 09: 10: 42
    Writing library : libebml v1.3.0 + libmatroska v1.4.0
    Video
    ID : 1
    Format : AVC
    Format/Info : Advanced Video Codec
    Format profile : High@L4.1
    Format settings, CABAC : Yes
    Format settings, ReFrames : 10 frames
    Codec ID : V_MPEG4/ISO/AVC
    Duration : 2h 4mn
    Bit rate : 2 113 Kbps
    Width : 1 024 pixels
    Height : 554 pixels
    Display aspect ratio : 1.85: 1
    Frame rate mode : Constant
    Frame rate : 23.976 fps
    Color space : YUV
    Chroma subsampling : 4: 2: 0
    Bit depth : 8 bits
    Scan type : Progressive
    Bits/(Pixel*Frame) : 0.155
    Stream size : 1.79 GiB (83%)
    Writing library : x264 core 148 r2597 e86f3a1
    Encoding settings : cabac=1/ref=10/deblock=1: -3: -2/analyse=0x3: 0x113/me=umh/subme=10/psy=1/psy_rd=1.00: 0.00/mixed_ref=1/me_range=32/chroma_me=1/trellis=2/8x8dct=1/cqm=0/deadzone=21, 11/fast_pskip=1/chroma_qp_offset=-2/threads=12/lookahead_threads=2/sliced_threads=0/nr=0/decimate=0/interlaced=0/bluray_compat=0/constrained_intra=0/bframes=8/b_pyramid=2/b_adapt=2/b_bias=0/direct=3/weightb=1/open_gop=0/weightp=2/keyint=250/keyint_min=25/scenecut=40/intra_refresh=0/rc_lookahead=40/rc=2pass/mbtree=1/bitrate=2113/ratetol=1.0/qcomp=0.60/qpmin=0/qpmax=69/qpstep=4/cplxblur=20.0/qblur=0.5/ip_ratio=1.40/aq=1: 1.00
    Default : Yes
    Forced : No
    Audio
    ID : 2
    Format : AC-3
    Format/Info : Audio Coding 3
    Mode extension : CM (complete main)
    Format settings, Endianness : Big
    Codec ID : A_AC3
    Duration : 2h 4mn
    Bit rate mode : Constant
    Bit rate : 384 Kbps
    Channel(s) : 6 channels
    Channel positions : Front: L C R, Side: L R, LFE
    Sampling rate : 48.0 KHz
    Bit depth : 16 bits
    Compression mode : Lossy
    Stream size : 341 MiB (15%)
    Default : Yes
    Forced : No

    Размер скачиваемого торрента: 2.17 GB (2328548526 Bytes)

    Джой/Joy (2015) WEB-DLRip-AVC от Scarabey | iTunes
    загрузка...
    Рейтинг →
     (голосов: 1, оценка 5/5, голосовать можно 1 раз )

    Другие торренты по теме:

  • Джо / Joe (2013) WEB-DLRip-AVC от ExKinoRay | P2 торрент скачать бесплатно


    • Комментарии (0):

      Информация

      Информация

        Посетители, находящиеся в группе Гости, не могут оставлять комментарии в данной новости.

        ↓ Меню



        ↓ Опрос

        А Вы добавили сайт в закладки?
        Да
        Не


        Top 10 за неделю (Фильмы)