.
Авторизация | Регистрация
» » Агенты Щ.И.Т. / Marvels Agents of S.H.I.E.L.D. (2015) WEB-DLRip от Semak | LostFilm скачать торрент бесплатно




    Агенты Щ.И.Т. / Marvels Agents of S.H.I.E.L.D. (2015) WEB-DLRip от Semak | LostFilm скачать торрент бесплатно

    Опубликовал: Админ | Дата: 10-04-2016, 12:32 | Просмотров: 80


    Агенты Щ.И.Т.а/Agents of S.H.I.E.L.D.

    Создали в: 2015
    Снималось в: США/Marvel Television
    Категория жанра: фантастика, боевик, драма
    Время просмотра: ~00: 44: 00
    Перевод текста: 1)Профессиональный (многоголосый закадровый) LostFilm
    Субтитры: нет Главный режиссёр:
    Дэвид Стрейтон/David Straiton, Джосс Уидон/Joss Whedon
    Актеры

    Кларк Грегг(Phil Coulson) , Минг-На(Melinda May) , Бретт Далтон(Grant Ward) , Хлоя Беннет(Skye) , Йен де Кестекер(Leo Fitz) , Элизабет Хенстридж(Jemma Simmons) , Рон Гласс(Dr. Streiten) , Шеннон Лучио(Debbie) , Дж. Аугуст Ричардс(Mike Peterson) , Коби Смолдерс(Maria Hill) , Даг Симпсон(FBI Agent) Описание:
    Сэмпл

    Описание фильма

    Агент Фил Колсон (Кларк Грегг) и его коллеги из секретной организации Щ.И.Т. — бойцы невидимого фронта, которые стоят на защите мира и спокойствия жителей Земли. Многое изменилось после вторжения пришельцев в Нью-Йорк. Начали появляться новые супергерои, которые далеко не всегда выступают на стороне добра и справедливости. Кроме того, людям стали доступны новые технологии и даже артефакты внеземного происхождения, которые могут натворить немало бед, если попадут не в те руки. За всем этим следит таинственный Щ.И.Т. и если что-то выйдет из-под контроля, лучшие агенты организации найдут способ ликвидировать угрозу.
    Рип чистый. Без посторонних надписей и звуков
    Тип релиза: WEB-DLRip Marvels.Agents.of.S.H.I.E.L.D.S03EXX.1080p.WEB-DL.DD5.1.H.264-СtrlHD
    Контейнер: AVI
    Информация о видео: 656x368 (1.76: 1), 23.976 fps, XviD build 73 ~1052 kbps avg, 0.18 bit/pixel
    Информация о звуке #1: 48 kHz, MP3, 2/0 (L, R) ch, ~128.00 kbps avg (RUS )LostFilm
    Информация о звуке #2: 48 kHz, MP3, 2/0 (L, R) ch, ~128.00 kbps avg (ENG )
    Скриншоты


    MediaInfo
    code
    Общее
    Полное имя : S: ЩИТ 03?1.avi
    Формат : AVI
    Формат/Информация : Audio Video Interleave
    Размер файла : 407 Мбайт
    Продолжительность : 43 м.
    Общий поток : 1321 Кбит/сек
    Программа кодирования : VirtualDubMod 1.5.10.3 | www.virtualdub-fr.org || (build 2550/release)
    Библиотека кодирования : VirtualDubMod build 2550/release
    Видео
    Идентификатор : 0
    Формат : MPEG-4 Visual
    Профиль формата : Advanced Simple@L5
    Параметр BVOP формата : 1
    Параметр QPel формата : Нет
    Параметр GMC формата : Без точки перехода
    Параметр матрицы формата : Выборочная
    Идентификатор кодека : DX50
    Идентификатор кодека/Подсказка : DivX 5
    Продолжительность : 43 м.
    Битрейт : 1052 Кбит/сек
    Ширина : 656 пикселей
    Высота : 368 пикселей
    Соотношение сторон : 16: 9
    Частота кадров : 23, 976 кадра/сек
    Цветовое пространство : YUV
    Субдискретизация насыщенности : 4: 2: 0
    Битовая глубина : 8 бит
    Тип развёртки : Прогрессивная
    Метод сжатия : С потерями
    Бит/(Пиксели*Кадры) : 0.182
    Размер потока : 324 Мбайт (80%)
    Библиотека кодирования : XviD 67
    Аудио #1
    Идентификатор : 1
    Формат : MPEG Audio
    Версия формата : Version 1
    Профиль формата : Layer 3
    Режим : Joint stereo
    Расширение режима : MS Stereo
    Идентификатор кодека : 55
    Идентификатор кодека/Подсказка : MP3
    Продолжительность : 43 м.
    Вид битрейта : Постоянный
    Битрейт : 128 Кбит/сек
    Каналы : 2 канала
    Частота : 48, 0 КГц
    Метод сжатия : С потерями
    Размер потока : 39, 4 Мбайт (10%)
    Выравнивание : Соединение по промежуткам
    Продолжительность промежутка : 42 мс. (1, 00 видеокадр)
    Время предзагрузки промежутка : 504 мс.
    Аудио #2
    Идентификатор : 2
    Формат : MPEG Audio
    Версия формата : Version 1
    Профиль формата : Layer 3
    Идентификатор кодека : 55
    Идентификатор кодека/Подсказка : MP3
    Продолжительность : 43 м.
    Вид битрейта : Постоянный
    Битрейт : 128 Кбит/сек
    Каналы : 2 канала
    Частота : 48, 0 КГц
    Метод сжатия : С потерями
    Размер потока : 39, 4 Мбайт (10%)
    Выравнивание : Соединение по промежуткам
    Продолжительность промежутка : 42 мс. (1, 00 видеокадр)
    Время предзагрузки промежутка : 504 мс.
    Библиотека кодирования : LAME3.99r
    Залил: Scorpiоn

    Онлайн видео Агенты Щ.И.Т.


    Размер скачиваемого торрента: 6.01 GB (6453923840 Bytes)


    Агенты Щ.И.Т./Marvels Agents of S.H.I.E.L.D. (2015) WEB-DLRip от Semak | LostFilm
    загрузка...
    Рейтинг →
     (голосов: 1, оценка 4/5, голосовать можно 1 раз )

    Другие торренты по теме:

  • Тайны мира с Анной Чапман. Разоблачение. Агенты в белых халатах (2013) SATRip торрент скачать бесплатно
  • Финес и Ферб: Зверушкины агенты / Phineas and Ferb: Animal agents (2012-2013) DVDRip от Youtracker | D | лицензия торрент скачать бесплатно
  • Барбузы - Секретные агенты / Les Barbouzes (1964) BDRip-AVC от Тorrent-Хzona торрент скачать бесплатно
  • Халк и Агенты У.Д.А.Р. / Hulk and the Agents of S.M.A.S.H (2013) WEB-DLRip торрент скачать бесплатно
  • Халк И Агенты У.Д.А.Р. / Hulk And The Agents Of S.M.A.S.H. (2013) WEB-DLRip 720p | L1 скачать через торрент бесплатно
  • Агенты Щ.И.Т.а / Agents of S.H.I.E.L.D (2013) WEB-DL 720p | Jaskier Studio скачать через торрент бесплатно
  • Агенты Щ.И.Т.а / Agents of S.H.I.E.L.D (2013) WEB-DLRip | Jaskier Studio скачать через торрент бесплатно
  • Агенты Щ.И.Т. / Agents of S.H.I.E.L.D. (2013) HDTVRip | Kerob скачать через торрент бесплатно


    • Комментарии (0):

      Информация

      Информация

        Посетители, находящиеся в группе Гости, не могут оставлять комментарии в данной новости.

        ↓ Меню



        ↓ Опрос

        А Вы добавили сайт в закладки?
        Да
        Не


        Top 10 за неделю (Фильмы)