.
Авторизация | Регистрация
» » И грянул шторм / The Finest Hours (2016) WEB-DLRip от GeneralFilm | Line скачать торрент бесплатно




    И грянул шторм / The Finest Hours (2016) WEB-DLRip от GeneralFilm | Line скачать торрент бесплатно

    Опубликовал: Админ | Дата: 15-04-2016, 05:00 | Просмотров: 94



    Детально о кино
    Русское название: И грянул шторм
    Русское название в мировом прокате: The Finest Hours
    Создали в: 2016
    Категория жанра: Боевик, триллер, драма, история
    Главный режиссер: Крэйг Гиллеспи

    Актеры
    Крис Пайн (Bernie Webber), Кейси Аффлек (Ray Sybert), Бен Фостер (Richard Livesey), Эрик Бана (Daniel Cluff), Холлидей Грейнджер (Miriam Webber), Джон Ортис (Wallace Quirey), Кайл Галлнер (Andy Fitzgerald), Джон Магаро (Ervin Maske), Грэм МакТавиш (Frank Fauteux), Майкл Рэймонд-Джеймс (D.A. Brown), Бо Напп (Mel Gouthro), Джош Стюарт (Tchuda Southerland)

    Сюжет фильма
    8 февраля 1952 года на побережье Новой Англии обрушился сильнейший ураган. Танкер Пендлтон, направлявшийся в Бостон, был буквально разорван на две части и тридцать два моряка оказались пойманными в ловушку на тонущем судне. Старший ассистент инженера Рэй Сайберт взял в свои руки управление и убедил своих товарищей начать работать сообща, чтобы перенести добраться живыми до берега. Тем временем сообщения о крушении танкера поступили на станцию Береговой Охраны США в г. Чатаме, штат Массачусетс. Офицер Дэниэл Клафф принял решение начать рискованную операцию по спасению команды Пендлтона. Четверо спасателей во главе с капитаном Берни Вебером на деревянной шлюпке со слабым двигателем и почти без средств навигации, должны будут дать отпор гигантским волнам и ураганному ветру, чтобы спасти терпящих бедствие моряков… Фильм основан на реальных событиях.

    Снималось в: США, Bergsten Music, Walt Disney Pictures, Whitaker Entertainment See more
    Время просмотра: 01: 57: 17
    Тип перевода: Дублированное Line
    Файл
    Качество фильма: WEB-DLRip
    Информация о видео кодек: XviD
    Информация о звуке кодек: MP3
    Информация о видео: 656x272 (2.40: 1), 23.976 fps, XviD build 73 ~750 kbps avg, 0.176 bit/pixel
    Aудио: 48 kHz, MP3 Dolby Digital, 2/0 (L, R) ch, 128 kbps
    МедиаИнфо
    Полное имя : I.Grjanul.Shtorm.2016.XviD.WEB-DLRip.by.GeneralFilm.avi
    Формат : AVI
    Формат/Информация : Audio Video Interleave
    Размер файла : 747 Мбайт
    Продолжительность : 1 ч. 57 м.
    Общий поток : 890 Кбит/сек
    Программа кодирования : VirtualDubMod 1.5.10.3 | www.virtualdub-fr.org || (build 2550/release)
    Библиотека кодирования : VirtualDubMod build 2550/release
    Видео
    Идентификатор : 0
    Формат : MPEG-4 Visual
    Профиль формата : Advanced Simple@L5
    Параметр BVOP формата : 1
    Параметр QPel формата : Нет
    Параметр GMC формата : Без точки перехода
    Параметр матрицы формата : Выборочная
    Идентификатор кодека : XVID
    Идентификатор кодека/Подсказка : XviD
    Продолжительность : 1 ч. 57 м.
    Битрейт : 753 Кбит/сек
    Ширина : 656 пикселей
    Высота : 272 пикселя
    Соотношение сторон : 2, 40: 1
    Частота кадров : 23, 976 (23976/1000) кадра/сек
    Цветовое пространство : YUV
    Субдискретизация насыщенности : 4: 2: 0
    Битовая глубина : 8 бит
    Тип развёртки : Прогрессивная
    Метод сжатия : С потерями
    Бит/(Пиксели*Кадры) : 0.176
    Размер потока : 632 Мбайт (85%)
    Библиотека кодирования : XviD 73
    Аудио
    Идентификатор : 1
    Формат : MPEG Audio
    Версия формата : Version 1
    Профиль формата : Layer 3
    Идентификатор кодека : 55
    Идентификатор кодека/Подсказка : MP3
    Продолжительность : 1 ч. 57 м.
    Вид битрейта : Постоянный
    Битрейт : 128 Кбит/сек
    Каналы : 2 канала
    Частота : 48, 0 КГц
    Метод сжатия : С потерями
    Размер потока : 107 Мбайт (14%)
    Выравнивание : Соединение по промежуткам
    Продолжительность промежутка : 42 мс. (1, 00 видеокадр)
    Время предзагрузки промежутка : 504 мс.
    Библиотека кодирования : LAME3.99r
    Залил: vsobbol

    Онлайн видео И грянул шторм


    Размер скачиваемого торрента: 746.93 MB (783216640 Bytes)


    И грянул шторм/The Finest Hours (2016) WEB-DLRip от GeneralFilm | Line
    загрузка...
    Рейтинг →
     (голосов: 1, оценка 4/5, голосовать можно 1 раз )

    Другие торренты по теме:

  • И грянул шторм / Против шторма (2016) скачать торрент бесплатно
  • И грянул шторм / The Finest Hours (2016) WEB-DL 1080p | Звук с TS скачать торрент бесплатно
  • И грянул шторм / The Finest Hours (2016) WEB-DL 1080p | Line скачать торрент бесплатно
  • И грянул шторм / The Finest Hours (2016) WEB-DLRip-AVC | Line скачать торрент бесплатно
  • И грянул шторм / The Finest Hours (2016) скачать торрент бесплатно
  • И грянул шторм / The Finest Hours / 2016 / ДБ (Line) / WEB-DLRip скачать торрент бесплатно
  • И грянул шторм / The Finest Hours (2016) BDRip 1080p | Line скачать торрент бесплатно
  • И грянул шторм / The Finest Hours (2016) HDRip от Scarabey | Line скачать торрент бесплатно


    • Комментарии (0):

      Информация

      Информация

        Посетители, находящиеся в группе Гости, не могут оставлять комментарии в данной новости.

        ↓ Меню



        ↓ Опрос

        А Вы добавили сайт в закладки?
        Да
        Не


        Top 10 за неделю (Фильмы)