.
Авторизация | Регистрация
Хочешь лучшие торренты? Добавь свой email!
Добавить
» » Не бойся, я с тобой! 1919 (2013) HDTVRip от GeneralFilm торрент скачать бесплатно




    Не бойся, я с тобой! 1919 (2013) HDTVRip от GeneralFilm торрент скачать бесплатно

    Опубликовал: Админ | Дата: 19-04-2016, 11:32 | Просмотров: 74



    Детально о кино
    Русское название в мировом прокате: Не бойся, я с тобой! 1919
    Создали в: 2013
    Категория жанра: Комедия, музыкальный фильм, боевик, приключения
    Главный режиссер: Юлий Гусман

    Сюжет фильма

    Действие разворачивается в 1919 году в Азербайджане. На фоне беспорядков и общей неопределенности возникает история двух влюбленных друг в друга молодых людей Фархада и Ширин. Но на их пути встает давняя вражда родителей, - Гафур Бека и Теймура, ярых политических противников. Теймур, отец девушки, является убежденным сторонником установления в Азербайджане цивилизованного демократического режима, в то время как родитель отчаянного Фархада Гафур Бек со своим ближайшим сподвижником, подлым и беспринципным бандитом Абдуллой, намеревается изменить политическую ситуацию за счет мирной революции. Чтобы на время устранить Теймура, он похищает очаровательную Ширин и, таким образом, отвлекает внимание любящего отца. Однако злодеи недооценивают силу простой человеческой дружбы и любви. Не теряя ни секунды, уже знакомые зрителю по первому фильму бесстрашные герои Рустам и Сан Саныч спешат на помощь давним знакомым, а Фархад твердо намерен вызволить любимую из плена и образумить отца...

    Снималось в: Россия, Азербайджан
    Киностудия: Группа компаний ВайТ Медиа, Азербайджанфильм им. Дж. Джабарлы
    Время просмотра: 01: 49: 26
    Перевод текста: Не требуется
    Файл
    Кодек для видео: XviD
    Качество фильма: HDTVRip
    Информация о видео: 624х352 (16: 9), 25 fps, XviD 73, 822 kbps avg, 0.150 bit/pixel
    Информация о звуке: 48 kHz, MPEG Layer 3, 2 ch, ~ 128 kbps avg
    МедиаИнфо
    Полное имя : Ne.Bojsja.Ja.s.Toboj.1919.2013.XviD.HDTVRip.by.GeneralFilm.avi
    Формат : AVI
    Формат/Информация : Audio Video Interleave
    Размер файла : 751 Мбайт
    Продолжительность : 1 ч. 49 м.
    Общий поток : 960 Кбит/сек
    Программа кодирования : VirtualDubMod 1.5.10.3 | www.virtualdub-fr.org || (build 2550/release)
    Библиотека кодирования : VirtualDubMod build 2550/release
    Видео
    Идентификатор : 0
    Формат : MPEG-4 Visual
    Профиль формата : Advanced Simple@L5
    Параметр BVOP формата : 1
    Параметр QPel формата : Нет
    Параметр GMC формата : Без точки перехода
    Параметр матрицы формата : Выборочная
    Идентификатор кодека : XVID
    Идентификатор кодека/Подсказка : XviD
    Продолжительность : 1 ч. 49 м.
    Битрейт : 822 Кбит/сек
    Ширина : 624 пикселя
    Высота : 352 пикселя
    Соотношение сторон : 16: 9
    Частота кадров : 25, 000 кадров/сек
    Цветовое пространство : YUV
    Субдискретизация насыщенности : 4: 2: 0
    Битовая глубина : 8 бит
    Тип развёртки : Прогрессивная
    Метод сжатия : С потерями
    Бит/(Пиксели*Кадры) : 0.150
    Размер потока : 644 Мбайт (86%)
    Библиотека кодирования : XviD 73
    Аудио
    Идентификатор : 1
    Формат : MPEG Audio
    Версия формата : Version 1
    Профиль формата : Layer 3
    Идентификатор кодека : 55
    Идентификатор кодека/Подсказка : MP3
    Продолжительность : 1 ч. 49 м.
    Вид битрейта : Постоянный
    Битрейт : 128 Кбит/сек
    Каналы : 2 канала
    Частота : 48, 0 КГц
    Метод сжатия : С потерями
    Размер потока : 100 Мбайт (13%)
    Выравнивание : Соединение по промежуткам
    Продолжительность промежутка : 40 мс. (1, 00 видеокадр)
    Время предзагрузки промежутка : 504 мс.
    Библиотека кодирования : LAME3.99r
    Залил: vsobbol

    Онлайн видео Плюмбум, или Опасная игра (1986) DVDRip-AVC


    Размер скачиваемого торрента: 751.41 MB (787906560 Bytes)


    Не бойся, я с тобой! 1919 (2013) HDTVRip от GeneralFilm
    загрузка...
    Рейтинг →
     (голосов: 1, оценка 3/5, голосовать можно 1 раз )

    Другие торренты по теме:

  • Не бойся, я с тобой! 1919 (2013) HDTVRip от Files-x
  • Не бойся, я с тобой! 1919 (2013)


    • Комментарии (0):

      Информация

      Информация

        Посетители, находящиеся в группе Гости, не могут оставлять комментарии в данной новости.

        ↓ Меню



        ↓ Опрос

        А Вы добавили сайт в закладки?
        Да
        Не


        Top 10 за месяц (Фильмы)