.
Авторизация | Регистрация
Хочешь лучшие торренты? Добавь свой email!
Добавить
» » Девушка из Дании / The Danish Girlt (2015) BDRip | D | Лицензия торрент скачать бесплатно


    Девушка из Дании / The Danish Girlt (2015) BDRip | D | Лицензия торрент скачать бесплатно

    Опубликовал: Админ | Дата: 22-04-2016, 05:00 | Просмотров: 57



    Детально о кино
    Русское название: Девушка из Дании
    Русское название в мировом прокате: The Danish Girl
    Создали в: 2015
    Категория жанра: Драма, мелодрама, биография
    Главный режиссер: Том Хупер

    Актеры
    Эдди Редмэйн, Алисия Викандер, Туссе Сильберг, Адриан Шиллер, Эмбер Хёрд, Эмиральд Феннел, Генри Петтигрю, Клаус Буе, Питер Крэг, Анджела Каррен, Ричард Диксон, Бен Уишоу, Пип Торренс, Пол Бигли, Нэнси Крэйн, Николя Слоун, Соня Каллингфорд, Маттиас Шонартс, Виктория Эмсли, Александр Девриент

    Сюжет фильма

    Действие происходит в 1920-х годах в Копенгагене. Иллюстратор и художник Герда Вегенер просит своего мужа Эйнара Вегенера попозировать в качестве женской модели. Портреты приобретают популярность и Герда продолжает писать картины со своим мужем в качестве женщины. Эйнару нравится собственная женская внешность и он начинает жить под именем Лили Эльбе. Впоследствии Эльбе становится первым человеком, прошедшим хирургическую коррекцию пола.

    Снималось в: Великобритания, США, Бельгия, Дания, Германия
    Киностудия: Art?mis Productions, Pretty Pictures, ReVision Pictures, Working Title Films
    Время просмотра: 01: 59: 38
    Перевод текста: Профессиональный (полное дублирование)BD CEE
    Файл
    Качество фильма: BDRip (исх.The Danish Girl (2015) Blu-ray CEE 1080p AVC DTS 5.1 )
    Кодек для видео: XviD
    Информация о видео: 704x384 (1, 85: 1), 23, 976 fps, Xvid ~1294 kbps avg, 0.200 bit/pixel
    Информация о звуке: 48 kHz, AC3, 6 ch, ~448.00 kbps avg | русский |Профессиональный (полное дублирование)BD CEE
    Субтитры: Отсутствуют
    Семпл
    Инфо-файл
    Общее
    Полное имя : D: TorrentsЗавершенныеDanish Girl.2015.D.BDRip.avi
    Формат : AVI
    Формат/Информация : Audio Video Interleave
    Размер файла : 1, 46 Гбайт
    Продолжительность : 1 ч. 59 м.
    Общий поток : 1751 Кбит/сек
    Программа кодирования : VirtualDubMod 1.5.10.3 (build 2550/release)
    Библиотека кодирования : VirtualDubMod build 2550/release
    Видео
    Идентификатор : 0
    Формат : MPEG-4 Visual
    Профиль формата : Advanced Simple@L5
    Параметр BVOP формата : 2
    Параметр QPel формата : Нет
    Параметр GMC формата : Без точки перехода
    Параметр матрицы формата : Default (MPEG)
    Идентификатор кодека : XVID
    Идентификатор кодека/Подсказка : XviD
    Продолжительность : 1 ч. 59 м.
    Битрейт : 1294 Кбит/сек
    Ширина : 704 пикселя
    Высота : 384 пикселя
    Соотношение сторон : 1, 85: 1
    Частота кадров : 23, 976 (24000/1001) кадра/сек
    Цветовое пространство : YUV
    Субдискретизация насыщенности : 4: 2: 0
    Битовая глубина : 8 бит
    Тип развёртки : Прогрессивная
    Метод сжатия : С потерями
    Бит/(Пиксели*Кадры) : 0.200
    Размер потока : 1, 08 Гбайт (74%)
    Библиотека кодирования : XviD 73
    Аудио
    Идентификатор : 1
    Формат : AC-3
    Формат/Информация : Audio Coding 3
    Расширение режима : CM (complete main)
    Параметр Endianness формата : Big
    Идентификатор кодека : 2000
    Продолжительность : 1 ч. 59 м.
    Вид битрейта : Постоянный
    Битрейт : 448 Кбит/сек
    Каналы : 6 каналов
    Расположение каналов : Front: L C R, Side: L R, LFE
    Частота : 48, 0 КГц
    Частота кадров : 31, 250 кадров/сек (1536 spf)
    Метод сжатия : С потерями
    Размер потока : 383 Мбайт (26%)
    Выравнивание : Разделение по промежуткам
    Продолжительность промежутка : 42 мс. (1, 00 видеокадр)
    Время предзагрузки промежутка : 500 мс.
    Скриншоты

    Залил: admiralkz

    Онлайн видео Девушка из Дании


    Размер скачиваемого торрента: 1.46 GB (1571094528 Bytes)

    Девушка из Дании/The Danish Girlt (2015) BDRip | D | Лицензия
    загрузка...
    Рейтинг →
     (голосов: 1, оценка 5/5, голосовать можно 1 раз )

    Другие торренты по теме:

  • Девушка из Дании / The Danish Girl (2015) BDRip-AVC | iTunes
  • Девушка из Дании / The Danish Girl (2015)


    • Комментарии (0):

      Информация

      Информация

        Посетители, находящиеся в группе Гости, не могут оставлять комментарии в данной новости.

        ↓ Меню



        ↓ Опрос

        А Вы добавили сайт в закладки?
        Да
        Не


        Top 10 за месяц (Фильмы)