.
Авторизация | Регистрация
» » Пристрели их / Shoot Em Up (2007) BDRip-AVC | D, P, A скачать торрент бесплатно




    Пристрели их / Shoot Em Up (2007) BDRip-AVC | D, P, A скачать торрент бесплатно

    Опубликовал: Админ | Дата: 22-04-2016, 05:00 | Просмотров: 64



    Детально о кино
    Русское название: Пристрели их
    Русское название в мировом прокате: Shoot ;Em Up
    Создали в: 2007
    Снималось в: США
    Категория жанра: боевик, триллер, комедия, криминал
    Перевод текста: Дубляж; Профессиональный (многоголосый); Авторский (одноголосый)
    Субтитры: русские, английские
    Время просмотра: 01: 26: 32
    Главный режиссер: Майкл Дэвис

    Актеры
    Клайв Оуэн(Smith) , Пол Джаматти(Hertz) , Моника Беллуччи(Donna Quintano) , Стивен МакХэтти(Hammerson) , Грег Брайк(Lone Man) , Дэниэл Пилон(Senator Rutledge) , Джулиан Ричингс(Hertz;s Driver) , Тони Манч(Man Who Rides Shotgun) , Скотт МакКорд(Killer Shot in Behind) , Рамона Прингл(Baby;s Mother) , Сидни Менде-Гибсон(Baby Oliver) , Лукас Менде-Гибсон(Baby Oliver)


    Описание фильма

    Изгой, живущий воспоминаниями о собственном трагическом прошлом, спасает от верной смерти грудного младенца, оказавшись впутанным в правительственный заговор. Вместе с проституткой, ублажающей фантазии клиентов о грудном вскармливании и берущей на себя заботу о малыше, герой отсчитывает последние деньки двух коррумпированных чиновников.
    Рейтинг:

    MPAA: R- Лицам до 17 лет обязательно присутствие взрослого
    Качество фильма: BDRip-AVC
    Тип видео: MKV
    Информация о видео: AVC, 1024x436 (2.35: 1), 2430 kbps, 23, 976 fps, 0, 227 bpp
    Информация о звуке №1: русский/AC3/5.1/48 kHz/448 kbps/16 bit |Дубляж, Мосфильм-Мастер|
    Информация о звуке №2: русский/AC3/5.1/48 kHz/448 kbps/16 bit |MVO, студия Кравец|
    Информация о звуке №3: русский/AC3/5.1/48 kHz/448 kbps/16 bit |AVO, Строев|
    Информация о звуке №4: русский/AC3/5.1/48 kHz/384 kbps/16 bit |AVO, Королёв|
    Информация о звуке №5: русский/AC3/5.1/48 kHz/448 kbps/16 bit |AVO, Штамп|
    Информация о звуке №6: русский/AC3/5.1/48 kHz/384 kbps/16 bit |AVO, Гаврилов|
    Информация о звуке №7: английский/AC3/5.1/48 kHz/448 kbps/16 bit
    Навигация по главам: есть
    Семпл

    Релиз подготовил: by -Lexx-

    ОтчетМедиаИнфо

    General
    Unique ID : 252161792893706323190551149890256868874 (0xBDB4984344BDB287864F4B711CD9960A)
    Название : H: Shoot.Em.Up.2007.BDRip-AVC.by.R.G.Resident.mkv
    Формат : Matroska
    Формат version : Version 4/Version 2
    Размер файла : 3.29 GiB
    Длительность : 1h 26mn
    Общий Битрейт : 5 442 Kbps
    Movie name : Shoot ;Em Up (2007) BDRip-AVC by R.G. Resident
    Encoded date : UTC 2016-04-20 18: 47: 56
    Создано приложением : mkvmerge v9.0.1 (;Obstacles;) 64bit
    Writing library : libebml v1.3.3 + libmatroska v1.4.4
    Длительность : 01: 18: 05.269000000
    NUMBER_OF_FRAMES : 880
    NUMBER_OF_BYTES : 28799
    _STATISTICS_WRITING_APP : mkvmerge v9.0.1 (;Obstacles;) 64bit
    _STATISTICS_WRITING_DATE_UTC : 2016-04-20 18: 47: 56
    _STATISTICS_TAGS : BPS Длительность NUMBER_OF_FRAMES NUMBER_OF_BYTES
    Video
    ID : 1
    Формат : AVC
    Формат/Info : Advanced Video Кодек
    Формат profile : High@L4.1
    Формат настройки, CABAC : Yes
    Формат настройки, ReFrames : 9 frames
    Кодек ID : V_MPEG4/ISO/AVC
    Длительность : 1h 26mn
    Битрейт : 2 430 Kbps
    Width : 1 024 пикселей
    Высота : 436 пикселей
    Соотношение кадра : 2.35: 1
    Частота кадров : 23.976 fps
    Цветопередача : YUV
    Chroma subsampling : 4: 2: 0
    Разрядность : 8 bits
    Тип сканирования : Progressive
    Bits/(Pixel*Frame) : 0.227
    Размер потока : 1.41 GiB (43%)
    Title : -Lexx-
    Writing library : x264 core 146 r2538 121396c
    Encoding настройки : cabac=1/ref=9/deblock=1: -2: -2/analyse=0x3: 0x113/me=umh/subme=11/psy=1/psy_rd=1.00: 0.10/mixed_ref=1/me_range=48/chroma_me=1/trellis=2/8x8dct=1/cqm=0/deadzone=21, 11/fast_pskip=0/chroma_qp_offset=-3/threads=6/lookahead_threads=2/sliced_threads=0/nr=0/decimate=1/interlaced=0/bluray_compat=0/constrained_intra=0/bframes=9/b_pyramid=2/b_adapt=2/b_bias=0/direct=3/weightb=1/open_gop=0/weightp=2/keyint=240/keyint_min=23/scenecut=40/intra_refresh=0/rc=2pass/mbtree=0/bitrate=2430/ratetol=1.0/qcomp=0.60/qpmin=0/qpmax=69/qpstep=4/cplxblur=20.0/qblur=0.5/ip_ratio=1.40/pb_ratio=1.30/aq=1: 1.00
    Язык : English
    Default : Yes
    Forced : No
    Длительность : 01: 26: 32.187000000
    NUMBER_OF_FRAMES : 124488
    NUMBER_OF_BYTES : 1577000409
    _STATISTICS_WRITING_APP : mkvmerge v9.0.1 (;Obstacles;) 64bit
    _STATISTICS_WRITING_DATE_UTC : 2016-04-20 18: 47: 56
    _STATISTICS_TAGS : BPS Длительность NUMBER_OF_FRAMES NUMBER_OF_BYTES
    Audio #1
    ID : 2
    Формат : AC-3
    Формат/Info : Audio Coding 3
    Расширение режима : CM (complete main)
    Кодек ID : A_AC3
    Длительность : 1h 26mn
    Битрейт mode : Constant
    Битрейт : 448 Kbps
    Channel(s) : 6 каналов
    Channel positions : Front: L C R, Side: L R, LFE
    Частота : 48.0 KHz
    Разрядность : 16 bits
    Режим сжатия : Lossy
    Размер потока : 277 MiB (8%)
    Title : Дубляж (n/a-мастер)
    Язык : Russian
    Default : Yes
    Forced : No
    Audio #2
    ID : 3
    Формат : AC-3
    Формат/Info : Audio Coding 3
    Расширение режима : CM (complete main)
    Кодек ID : A_AC3
    Длительность : 1h 26mn
    Битрейт mode : Constant
    Битрейт : 448 Kbps
    Channel(s) : 6 каналов
    Channel positions : Front: L C R, Side: L R, LFE
    Частота : 48.0 KHz
    Разрядность : 16 bits
    Режим сжатия : Lossy
    Размер потока : 277 MiB (8%)
    Title : MVO (Кравец)
    Язык : Russian
    Default : No
    Forced : No
    Audio #3
    ID : 4
    Формат : AC-3
    Формат/Info : Audio Coding 3
    Расширение режима : CM (complete main)
    Кодек ID : A_AC3
    Длительность : 1h 26mn
    Битрейт mode : Constant
    Битрейт : 448 Kbps
    Channel(s) : 6 каналов
    Channel positions : Front: L C R, Side: L R, LFE
    Частота : 48.0 KHz
    Разрядность : 16 bits
    Режим сжатия : Lossy
    Размер потока : 277 MiB (8%)
    Title : AVO (Строев)
    Язык : Russian
    Default : No
    Forced : No
    Audio #4
    ID : 5
    Формат : AC-3
    Формат/Info : Audio Coding 3
    Расширение режима : CM (complete main)
    Кодек ID : A_AC3
    Длительность : 1h 26mn
    Битрейт mode : Constant
    Битрейт : 384 Kbps
    Channel(s) : 6 каналов
    Channel positions : Front: L C R, Side: L R, LFE
    Частота : 48.0 KHz
    Разрядность : 16 bits
    Режим сжатия : Lossy
    Размер потока : 238 MiB (7%)
    Title : AVO (Королев)
    Язык : Russian
    Default : No
    Forced : No
    Audio #5
    ID : 6
    Формат : AC-3
    Формат/Info : Audio Coding 3
    Расширение режима : CM (complete main)
    Кодек ID : A_AC3
    Длительность : 1h 26mn
    Битрейт mode : Constant
    Битрейт : 448 Kbps
    Channel(s) : 6 каналов
    Channel positions : Front: L C R, Side: L R, LFE
    Частота : 48.0 KHz
    Разрядность : 16 bits
    Режим сжатия : Lossy
    Размер потока : 277 MiB (8%)
    Title : AVO (Штамп)
    Язык : Russian
    Default : No
    Forced : No
    Audio #6
    ID : 7
    Формат : AC-3
    Формат/Info : Audio Coding 3
    Расширение режима : CM (complete main)
    Кодек ID : A_AC3
    Длительность : 1h 26mn
    Битрейт mode : Constant
    Битрейт : 384 Kbps
    Channel(s) : 6 каналов
    Channel positions : Front: L C R, Side: L R, LFE
    Частота : 48.0 KHz
    Разрядность : 16 bits
    Режим сжатия : Lossy
    Размер потока : 238 MiB (7%)
    Title : AVO (Гаврилов)
    Язык : Russian
    Default : No
    Forced : No
    Audio #7
    ID : 8
    Формат : AC-3
    Формат/Info : Audio Coding 3
    Расширение режима : CM (complete main)
    Кодек ID : A_AC3
    Длительность : 1h 26mn
    Битрейт mode : Constant
    Битрейт : 448 Kbps
    Channel(s) : 6 каналов
    Channel positions : Front: L C R, Side: L R, LFE
    Частота : 48.0 KHz
    Разрядность : 16 bits
    Режим сжатия : Lossy
    Размер потока : 277 MiB (8%)
    Title : Оригинал
    Язык : English
    Default : No
    Forced : No
    Text #1
    ID : 9
    Формат : UTF-8
    Кодек ID : S_TEXT/UTF8
    Кодек ID/Info : UTF-8 Plain Text
    Title : R5
    Язык : Russian
    Default : No
    Forced : No
    Text #2
    ID : 10
    Формат : UTF-8
    Кодек ID : S_TEXT/UTF8
    Кодек ID/Info : UTF-8 Plain Text
    Title : Русские Antar
    Язык : Russian
    Default : No
    Forced : No
    Text #3
    ID : 11
    Формат : UTF-8
    Кодек ID : S_TEXT/UTF8
    Кодек ID/Info : UTF-8 Plain Text
    Title : Русские Богдан Усенко
    Язык : Russian
    Default : No
    Forced : No
    Text #4
    ID : 12
    Формат : UTF-8
    Кодек ID : S_TEXT/UTF8
    Кодек ID/Info : UTF-8 Plain Text
    Title : Русские
    Язык : Russian
    Default : No
    Forced : No
    Text #5
    ID : 13
    Формат : UTF-8
    Кодек ID : S_TEXT/UTF8
    Кодек ID/Info : UTF-8 Plain Text
    Title : Русские sunny-sko
    Язык : Russian
    Default : No
    Forced : No
    Text #6
    ID : 14
    Формат : UTF-8
    Кодек ID : S_TEXT/UTF8
    Кодек ID/Info : UTF-8 Plain Text
    Title : Русские voronine
    Язык : Russian
    Default : No
    Forced : No
    Text #7
    ID : 15
    Формат : UTF-8
    Кодек ID : S_TEXT/UTF8
    Кодек ID/Info : UTF-8 Plain Text
    Title : Русские Dexter
    Язык : Russian
    Default : No
    Forced : No
    Text #8
    ID : 16
    Формат : UTF-8
    Кодек ID : S_TEXT/UTF8
    Кодек ID/Info : UTF-8 Plain Text
    Title : Full
    Язык : English
    Default : No
    Forced : No
    Menu
    00: 00: 00.000 : : Chapter 01
    00: 07: 56.976 : : Chapter 02
    00: 09: 21.477 : : Chapter 03
    00: 12: 18.821 : : Chapter 04
    00: 15: 09.408 : : Chapter 05
    00: 22: 50.035 : : Chapter 06
    00: 26: 09.401 : : Chapter 07
    00: 29: 56.461 : : Chapter 08
    00: 36: 38.905 : : Chapter 09
    00: 41: 28.694 : : Chapter 10
    00: 49: 59.246 : : Chapter 11
    00: 57: 18.226 : : Chapter 12
    01: 03: 00.610 : : Chapter 13
    01: 09: 28.581 : : Chapter 14
    01: 17: 19.259 : : Chapter 15
    01: 19: 51.828 : : Chapter 16
    01: 26: 31.978 : : Chapter 17
    Скриншоты


    Онлайн видео Пристрели их


    Размер скачиваемого торрента: 3.29 GB (3531909436 Bytes)

    Пристрели их/Shoot Em Up (2007) BDRip-AVC | D, P, A
    загрузка...
    Рейтинг →
     (голосов: 1, оценка 5/5, голосовать можно 1 раз )

    Другие торренты по теме:

  • Пристрели их / Shoot 'Em Up / 2007 / ДБ, ПМ, АП (Гаврилов, Королёв, Строев, Штамп), СТ / BDRip (720p) скачать торрент бесплатно


    • Комментарии (0):

      Информация

      Информация

        Посетители, находящиеся в группе Гости, не могут оставлять комментарии в данной новости.

        ↓ Меню



        ↓ Опрос

        А Вы добавили сайт в закладки?
        Да
        Не


        Top 10 за неделю (Фильмы)