.
Авторизация | Регистрация
Хочешь лучшие торренты? Добавь свой email!
Добавить




Пираньи / Piranha (1978) HDRip | P торрент скачать бесплатно

Опубликовал: Админ | Дата: 24-04-2016, 05:00 | Просмотров: 88



Детально о кино
Русское название: Пираньи
Русское название в мировом прокате: Piranha
Создали в: 1978
Категория жанра: Фантастика, ужасы
Главный режиссер: Джо Данте/Joe Dante

Актеры
Брэдфорд Диллман, Хезер Мензес, Кевин МакКарти, Кинен Уинн, Дик Миллер, Барбара Стил, Белинда Бэласки, Мелоди Томас Скотт, Брюс Гордон, Бэрри Браун

Сюжет фильма
Холодная война закончилась, но все ли ее последствия и изобретения ушли в прошлое? В секретной лаборатории вывели гигантских пираний, способных выживать в любом климате. Базу закрыли, а оставшиеся рыбки, вместе со слитой случайно водой, попали в ближайшую речушку, оттуда — в озеро. Если прожорливые твари доберутся до океана, исчезнет все живое на земле!!!

Снималось в: США
Киностудия: New World Pictures
Время просмотра: 01: 33: 59
Перевод текста: Профессиональный (многоголосый, закадровый) - Видеосервис
Файл
Тип видео: avi
Качество фильма: HDRip (BDRip.1080p)
Информация о видео: XviD, 656x352, 23.976fps, 969kbps
Информация о звуке: MPEG Layer 3, 2ch, 48000Hz, 128kbps

MediaInfo

General
Complete name : Pirani.1978.P.HDRip.700.CurHaJI.avi
Format : AVI
Format/Info : Audio Video Interleave
File size : 744 MiB
Duration : 1h 33mn
Overall bit rate : 1 107 Kbps
Movie name : Pirani.1978.P.HDRip.700.CurHaJI
Writing library : VirtualDub build 35491/release
Video
ID : 0
Format : MPEG-4 Visual
Format profile : Advanced Simple@L5
Format settings, BVOP : 2
Format settings, QPel : No
Format settings, GMC : No warppoints
Format settings, Matrix : Custom
Codec ID : XVID
Codec ID/Hint : XviD
Duration : 1h 33mn
Bit rate : 969 Kbps
Width : 656 pixels
Height : 352 pixels
Display aspect ratio : 1.85: 1
Frame rate : 23.976 fps
Color space : YUV
Chroma subsampling : 4: 2: 0
Bit depth : 8 bits
Scan type : Progressive
Compression mode : Lossy
Bits/(Pixel*Frame) : 0.175
Stream size : 652 MiB (88%)
Writing library : XviD 73
Audio
ID : 1
Format : MPEG Audio
Format version : Version 1
Format profile : Layer 3
Codec ID : 55
Codec ID/Hint : MP3
Duration : 1h 33mn
Bit rate mode : Constant
Bit rate : 128 Kbps
Channel(s) : 2 channels
Sampling rate : 48.0 KHz
Compression mode : Lossy
Stream size : 86.1 MiB (12%)
Alignment : Split accross interleaves
Interleave, duration : 42 ms (1.00 video frame)
Interleave, preload duration : 500 ms
Writing library : LAME3.99r
Encoding settings : -m s -V 4 -q 2 -lowpass 17 -b 128

Скриншоты



Релиз подготовил:
Залил: CurHaJI

Онлайн видео Пираньи


Размер скачиваемого торрента: 744.02 MB (780164974 Bytes)

Пираньи/Piranha (1978) HDRip | P
загрузка...
Рейтинг →
 (голосов: 1, оценка 4/5, голосовать можно 1 раз )

Другие торренты по теме:

  • Пираньи / Piranha (1995) DVDRip-AVC от New-Team
  • Пираньи / Piranha (1995) DVDRip от New-Team
  • Пираньи / Piranha (1995) DVDRip от New-Team
  • Пираньи / Piranha (2010) BDRemux 1080p
  • Пираньи 3DD / Piranha 3DD (2012) BDRip-AVC | iPad
  • OST - Пираньи 3D / Piranha 3D (2010) MP3
  • Пираньи 3D / Piranha 3D (2010) BDRip 1080p | D, A
  • Пираньи 2: Нерест / Piranha Part Two: The Spawning (1981) DVDRip-AVC | A


    • Комментарии (0):

      Информация

      Информация

        Посетители, находящиеся в группе Гости, не могут оставлять комментарии в данной новости.

        ↓ Меню



        ↓ Опрос

        А Вы добавили сайт в закладки?
        Да
        Не


        Top 10 за месяц (Фильмы)