.
Авторизация | Регистрация
» » Сестры / Sisters (2015) BDRip | Театральная версия | D | Лицензия торрент скачать бесплатно




    Сестры / Sisters (2015) BDRip | Театральная версия | D | Лицензия торрент скачать бесплатно

    Опубликовал: Админ | Дата: 25-04-2016, 05:00 | Просмотров: 103



    They don;t get any closer than this
    Детально о кино
    Русское название: Сестры
    Русское название в мировом прокате: Sisters
    Создали в: 2015
    Категория жанра: Комедия
    Главный режиссер: Джейсон Мур

    Актеры
    Эми Полер, Тина Фей, Майя Рудольф, Айк Баринхолц, Джеймс Бролин, Дайэнн Уист, Джон Сина, Джон Легуизамо, Бобби Мойнахан, Грета Ли

    Сюжет фильма

    Две сестры решают устроить одну последнюю вечеринку в их семейном доме, прежде чем родители продадут его.

    Снималось в: США
    Киностудия: Little Stranger
    Время просмотра: 01: 57: 46
    Перевод текста: Профессиональный (полное дублирование)BD CEE
    Файл
    Качество фильма: BDRip (исх.Sisters (2015) Theatrical Cut Blu-ray CEE 1080p AVC DD5.1 )
    Кодек для видео: XviD
    Информация о видео: 720x304 (2, 35: 1), 23, 976 fps, Xvid ~1741 kbps avg, 0.332 bit/pixel
    Информация о звуке: 48 kHz, AC3, 6 ch, ~448.00 kbps avg | русский |Профессиональный (полное дублирование)BD CEE
    Информация о звуке: 48 kHz, AC3, 6 ch, ~448.00 kbps avg | английский | Оригинал
    Субтитры: Отсутствуют
    Семпл
    Инфо-файл
    Общее
    Полное имя : D: TorrentsЗавершенныеSisters.2015.D.BDRip.2.18_by stillet.avi
    Формат : AVI
    Формат/Информация : Audio Video Interleave
    Профиль формата : OpenDML
    Размер файла : 2, 18 Гбайт
    Продолжительность : 1 ч. 57 м.
    Общий поток : 2655 Кбит/сек
    Программа кодирования : VirtualDubMod 1.5.10.3 (build 2550/release)
    Библиотека кодирования : VirtualDubMod build 2550/release
    Видео
    Идентификатор : 0
    Формат : MPEG-4 Visual
    Профиль формата : Advanced Simple@L5
    Параметр BVOP формата : 2
    Параметр QPel формата : Нет
    Параметр GMC формата : Без точки перехода
    Параметр матрицы формата : Default (MPEG)
    Идентификатор кодека : XVID
    Идентификатор кодека/Подсказка : XviD
    Продолжительность : 1 ч. 57 м.
    Битрейт : 1741 Кбит/сек
    Ширина : 720 пикселей
    Высота : 304 пикселя
    Соотношение сторон : 2, 35: 1
    Частота кадров : 23, 976 (24000/1001) кадра/сек
    Цветовое пространство : YUV
    Субдискретизация насыщенности : 4: 2: 0
    Битовая глубина : 8 бит
    Тип развёртки : Прогрессивная
    Метод сжатия : С потерями
    Бит/(Пиксели*Кадры) : 0.332
    Размер потока : 1, 43 Гбайт (66%)
    Библиотека кодирования : XviD 73
    Аудио #1
    Идентификатор : 1
    Формат : AC-3
    Формат/Информация : Audio Coding 3
    Расширение режима : CM (complete main)
    Параметр Endianness формата : Big
    Идентификатор кодека : 2000
    Продолжительность : 1 ч. 57 м.
    Вид битрейта : Постоянный
    Битрейт : 448 Кбит/сек
    Каналы : 6 каналов
    Расположение каналов : Front: L C R, Side: L R, LFE
    Частота : 48, 0 КГц
    Частота кадров : 31, 250 кадров/сек (1536 spf)
    Метод сжатия : С потерями
    Размер потока : 377 Мбайт (17%)
    Выравнивание : Разделение по промежуткам
    Продолжительность промежутка : 42 мс. (1, 00 видеокадр)
    Время предзагрузки промежутка : 500 мс.
    Аудио #2
    Идентификатор : 2
    Формат : AC-3
    Формат/Информация : Audio Coding 3
    Расширение режима : CM (complete main)
    Параметр Endianness формата : Big
    Идентификатор кодека : 2000
    Продолжительность : 1 ч. 57 м.
    Вид битрейта : Постоянный
    Битрейт : 448 Кбит/сек
    Каналы : 6 каналов
    Расположение каналов : Front: L C R, Side: L R, LFE
    Частота : 48, 0 КГц
    Частота кадров : 31, 250 кадров/сек (1536 spf)
    Метод сжатия : С потерями
    Размер потока : 377 Мбайт (17%)
    Выравнивание : Разделение по промежуткам
    Продолжительность промежутка : 42 мс. (1, 00 видеокадр)
    Время предзагрузки промежутка : 500 мс.
    Скриншоты

    Залил: admiralkz

    Онлайн видео Сестры


    Размер скачиваемого торрента: 2.18 GB (2345259008 Bytes)

    Сестры/Sisters (2015) BDRip | Театральная версия | D | Лицензия
    загрузка...
    Рейтинг →
     (голосов: 1, оценка 3/5, голосовать можно 1 раз )

    Другие торренты по теме:

  • Сестры / Sisters (1973) BDRemux 1080p от MediaClub | P скачать через торрент бесплатно
  • Сестры / Sisters (2015) BDRip 1080p | Театральная версия | D | Лицензия
  • Сестры / Sisters (2015) HDRip от Scarabey | Театральная версия | Лицензия
  • Сестры / Sisters (2015) Театральная версия | D | Лицензия
  • Сестры / Sisters (2015) BDRip 720p | Дополнительные материалы | Sub
  • Сестры / Sisters (2015) BDRip от HQCLUB | Theatrical Cut | D | Лицензия
  • Сестры / Sisters (1973) BDRip от Koenig | P
  • Дьявольские сестры / Бешенные сестры / Die teuflischen Schwestern / Sexy Sisters (1977) BDRip от Rulya74 | A


    • Комментарии (0):

      Информация

      Информация

        Посетители, находящиеся в группе Гости, не могут оставлять комментарии в данной новости.

        ↓ Меню



        ↓ Опрос

        А Вы добавили сайт в закладки?
        Да
        Не


        Top 10 за месяц (Фильмы)