.
Авторизация | Регистрация
» » Командир корабля (1954) DVDRip от New-Team скачать торрент бесплатно




    Командир корабля (1954) DVDRip от New-Team скачать торрент бесплатно

    Опубликовал: Админ | Дата: 27-04-2016, 15:26 | Просмотров: 77



    Снималось в: СССР
    Создали в: Киевская киностудия
    Категория жанра: драма, военный
    Создали в: 1954
    Время просмотра: 01: 37: 48
    Перевод текста: Не требуется
    Субтитры подготовлены: нет
    Оригинальная аудиодорожка: русский
    Главный режиссер: Владимир Браун

    Актеры

    Михаил Кузнецов, Анатолий Вербицкий, Людмила Соколова, Борис Смирнов, Нина Крачковская, Виктор Добровольский, Владимир Балашов, Всеволод Тягушев, Игорь Горбачёв, Исай Гуров, Евгений Черни, Григорий Гай, А. Душечкин, Г. Петров, Иван Косых...
    Полный список актёров
    Описание:
    По мотивам романа Л. Зайцева и Г. Скульского В Далекой гавани.
    Только что окончившего академию Андрея Высотина назначают командиром корабля Державный. Герой вызывает на соревнование Светова, командира другого судна своей флотилии, в жену которого был когда-то влюблен. Фильм о любви, верности, дружбе и испытании настоящих чувств.



    Источник: DVD5 R5
    Качество фильма видео: DVDRip
    Тип видео видео: AVI
    Информация о видео: 688x512 (4: 3), 25 fps, XviD ~ 1936 kbps avg, 0.220 bit/pixel
    Информация о звуке: 48 kHz, Dolby Digital AC3 2.0, 192 kbps
    Раздача от:
    MediaInfo

    Общее
    Полное имя : Komandir.korablya.1954.DVDRip_New-team_by_AVP_Studio.avi
    Формат : AVI
    Формат/Информация : Audio Video Interleave
    Размер файла : 1, 46 Гбайт
    Продолжительность : 1 ч. 37 м.
    Общий поток : 2137 Кбит/сек
    Программа кодирования : VirtualDubMod 1.5.10.3 | www.virtualdub-fr.org || (build 2550/release)
    Библиотека кодирования : VirtualDubMod build 2550/release
    Видео
    Идентификатор : 0
    Формат : MPEG-4 Visual
    Профиль формата : Advanced Simple@L5
    Параметр BVOP формата : 1
    Параметр QPel формата : Нет
    Параметр GMC формата : Без точки перехода
    Параметр матрицы формата : Выборочная
    Идентификатор кодека : XVID
    Идентификатор кодека/Подсказка : XviD
    Продолжительность : 1 ч. 37 м.
    Битрейт : 1936 Кбит/сек
    Ширина : 688 пикселей
    Высота : 512 пикселей
    Соотношение сторон : 4: 3
    Частота кадров : 25, 000 кадров/сек
    Цветовое пространство : YUV
    Субдискретизация насыщенности : 4: 2: 0
    Битовая глубина : 8 бит
    Тип развёртки : Прогрессивная
    Метод сжатия : С потерями
    Бит/(Пиксели*Кадры) : 0.220
    Размер потока : 1, 32 Гбайт (91%)
    Библиотека кодирования : XviD 1.2.1 (UTC 2008-12-04)
    Аудио
    Идентификатор : 1
    Формат : AC-3
    Формат/Информация : Audio Coding 3
    Расширение режима : CM (complete main)
    Параметр Endianness формата : Big
    Идентификатор кодека : 2000
    Продолжительность : 1 ч. 37 м.
    Вид битрейта : Постоянный
    Битрейт : 192 Кбит/сек
    Каналы : 2 канала
    Расположение каналов : Front: L R
    Частота : 48, 0 КГц
    Частота кадров : 31, 250 кадров/сек (1536 spf)
    Метод сжатия : С потерями
    Размер потока : 134 Мбайт (9%)
    Выравнивание : Разделение по промежуткам
    Продолжительность промежутка : 40 мс. (1, 00 видеокадр)
    Время предзагрузки промежутка : 500 мс

    Скриншоты



    Залил: AVPStudio

    Онлайн видео Командир корабля (1954) DVDRip от New


    Размер скачиваемого торрента: 1.46 GB (1567778816 Bytes)

    Командир корабля (1954) DVDRip от New-Team
    загрузка...
    Рейтинг →
     (голосов: 1, оценка 4/5, голосовать можно 1 раз )

    Другие торренты по теме:

  • Командир эскадрильи / Wing Commander (1999) BDRip 720p от MediaClub | P, P2, P1 торрент скачать бесплатно
  • Командир и Аист / Il Comandante e La Cicogna (2012) DVD-9 торрент скачать бесплатно
  • Командир счастливой Щуки (1972) TVRip скачать торрент бесплатно
  • Тёща-командир (2016) HDTVRip от Files-x скачать торрент бесплатно
  • Тёща-командир (2017) HDTVRip от GeneralFilm скачать торрент бесплатно


    • Комментарии (0):

      Информация

      Информация

        Посетители, находящиеся в группе Гости, не могут оставлять комментарии в данной новости.

        ↓ Меню



        ↓ Опрос

        А Вы добавили сайт в закладки?
        Да
        Не


        Top 10 за неделю (Фильмы)