.
Авторизация | Регистрация
Хочешь лучшие торренты? Добавь свой email!
Добавить
» » Властелин Колец: Возвращение Бомжа / The Lord of the Rings: The Return of (2004) BDRip 1080p | Смешной перевод торрент скачать бесплатно




    Властелин Колец: Возвращение Бомжа / The Lord of the Rings: The Return of (2004) BDRip 1080p | Смешной перевод торрент скачать бесплатно

    Опубликовал: Админ | Дата: 28-04-2016, 13:27 | Просмотров: 153



    Детально о кино
    Русское название: Властелин Колец: Возвращение Бомжа
    Русское название в мировом прокате: The Lord of the Rings: The Return of the King
    Создали в: 2003/2004
    Категория жанра: Пародия, комедия, юмористический перевод
    Главный режиссер: Питер Джексон, Дмитрий Goblin Пучков

    Актеры
    Элайджа Вуд, Шон Эстин, Вигго Мортенсен, Иэн МакКеллен, Доминик Монахэн, Билли Бойд, Орландо Блум, Джон Рис-Дэвис, Кристофер Ли

    Сюжет фильма

    Над солнечным Гондурасом сгущаются чОрные тучи: ветераны SS под руководством злобного Саурона подтягивают к городу полчища урок, оснащенных последними моделями штурмовых башен и стенобитных машин. Матерый кудесник Пендальф занят организацией обороны, в чем ему старательно мешает гондурасский оборотень в погонах — наглый генерал Димедрол Гребенщиков. Сильно пьющий царь Борис не скрывает острого желания от души поработать саблей и объявляет весенний призыв с целью принять участие в войне. А бомж Агроном, гном Гиви и эльф Логоваз успешно работают с призывниками среди покойников. А тем временем Федор Сумкин и Сеня Ганджубас, ведомые мордовским интеллигентом Голым, наконец-то прорываются на территорию суверенной Мордовии и норовят подкрасться к огнедышащей домне с целью завершения комплекса оперативно-розыскных мероприятий по уничтожению зловредного кольца.
    Снималось в: США, Новая Зеландия
    Время просмотра: 03: 21: 03
    Перевод текста: профессиональный одноголосый (смешной перевод студии Божья искра)
    Файл
    Качество фильма: BDRip 1080p
    Тип видео: MP4
    Информация о видео: MPEG-4 AVC, 1920x1080, 10.0 Mbps, 24 fps
    Информация о звуке: 48 kHz, AAC, 2 ch, ~128 kbps avg
    Семпл
    Примечание автора раздачи:
    Релиз от Альянса Вольных Переводчиков.
    Знаменитый перевод пересобран в HD-качестве. Все видеоэффекты сделаны с нуля. Ремастеринг - Андрей Кравец.
    Официальный сайт
    Скриншоты

    MI
    General
    Complete name : D: __==film_FVozvrashenie.bomzha.2004.1080p.mp4
    Format : MPEG-4
    Codec ID : M4V (M4V /M4A /mp42/isom)
    File size : 14.3 GiB
    Duration : 3h 21mn
    Overall bit rate mode : Variable
    Overall bit rate : 10.2 Mbps
    Movie name : Vozvrachenie_bomja_HD_Remaster
    Movie_More : video
    Album/Performer : video
    Performer : video
    Deion : video
    Encoded date : UTC 2015-12-10 10: 52: 30
    Tagged date : UTC 2015-12-10 12: 06: 50
    Keyword : video
    Video
    ID : 2
    Format : AVC
    Format/Info : Advanced Video Codec
    Format profile : High@L4
    Format settings, CABAC : Yes
    Format settings, ReFrames : 2 frames
    Codec ID : avc1
    Codec ID/Info : Advanced Video Coding
    Duration : 3h 21mn
    Bit rate mode : Variable
    Bit rate : 10.0 Mbps
    Maximum bit rate : 768 Kbps
    Width : 1 920 pixels
    Height : 1 080 pixels
    Display aspect ratio : 16: 9
    Frame rate mode : Constant
    Frame rate : 24.000 fps
    Original frame rate : 25.000 fps
    Color space : YUV
    Chroma subsampling : 4: 2: 0
    Bit depth : 8 bits
    Scan type : Progressive
    Bits/(Pixel*Frame) : 0.202
    Stream size : 14.1 GiB (99%)
    Title : Core Media Video
    Encoded date : UTC 2015-12-10 10: 52: 30
    Tagged date : UTC 2015-12-10 12: 06: 50
    Color range : Limited
    Color primaries : BT.709
    Transfer characteristics : BT.709
    Matrix coefficients : BT.709
    Audio
    ID : 1
    Format : AAC
    Format/Info : Advanced Audio Codec
    Format profile : LC
    Codec ID : 40
    Duration : 3h 21mn
    Source duration : 3h 21mn
    Bit rate mode : Constant
    Bit rate : 128 Kbps
    Channel(s) : 2 channels
    Channel positions : Front: L R
    Sampling rate : 48.0 KHz
    Frame rate : 46.875 fps (1024 spf)
    Compression mode : Lossy
    Stream size : 181 MiB (1%)
    Source stream size : 181 MiB (1%)
    Title : Core Media Audio
    Language : Russian
    Encoded date : UTC 2015-12-10 10: 52: 30
    Tagged date : UTC 2015-12-10 12: 06: 50

    Релиз подготовил:
    Залил: onZErun

    Онлайн видео Властелин Колец: Возвращение Бомжа


    Размер скачиваемого торрента: 14.29 GB (15339821484 Bytes)

    Властелин Колец: Возвращение Бомжа/The Lord of the Rings: The Return of (2004) BDRip 1080p | Смешной перевод
    загрузка...
    Рейтинг →
     (голосов: 1, оценка 4/5, голосовать можно 1 раз )

    Другие торренты по теме:

  • Властелин колец: Кинотрилогия / The Lord of the Rings: The Motion Picture Trilogy (2001-2003) BDRip 1080p | Theatrical Editions
  • Властелин колец: Возвращение Короля / The Lord of the Rings: The Return of the King (2003) BDRip 1080p Extended Edition
  • Властелин колец: Братство кольца / The Lord of the Rings: The Fellowship of the Ring (2001) HDRip | Театральная версия
  • Властелин колец: Трилогия / The Lord of the Rings: Trilogy (2001-2003) BDRip-AVC от potroks | Extended
  • Властелин колец: Две крепости / The Lord of the Rings: The Two Towers (2002) HDRip | Театральная версия
  • Властелин колец / The Lord Of The Rings (1978) НDRip от Generalfilm | КПК
  • Толкин Джон - Властелин колец. Книги 1-3 (2008) MP3
  • OST - Властелин Колец: Симфония / The Lord of the Rings Symphony (2011) MP3


    • Комментарии (0):

      Информация

      Информация

        Посетители, находящиеся в группе Гости, не могут оставлять комментарии в данной новости.

        ↓ Меню



        ↓ Опрос

        А Вы добавили сайт в закладки?
        Да
        Не


        Top 10 за месяц (Фильмы)