.
Авторизация | Регистрация
Хочешь лучшие торренты? Добавь свой email!
Добавить
» » Молодая гвардия (1948) DVDRip от New-Team торрент скачать бесплатно




    Молодая гвардия (1948) DVDRip от New-Team торрент скачать бесплатно

    Опубликовал: Админ | Дата: 29-04-2016, 13:42 | Просмотров: 36



    Снималось в: СССР
    Создали в: Студия Горького
    Категория жанра: драма, военный
    Создали в: 1948
    Время просмотра: 02: 39: 59 (01: 23: 24 + 01: 16: 35)
    Перевод текста: Не требуется
    Субтитры подготовлены: нет
    Оригинальная аудиодорожка: русский
    Главный режиссер: Сергей Герасимов

    Актеры
    Владимир Иванов, Инна Макарова, Сергей Гурзо, Борис Битюков, Нонна Мордюкова, Сергей Бондарчук, Глеб Романов, Людмила Шагалова, Вячеслав Тихонов, Караман Мгеладзе, Анатолий Чемодуров, Георгий Юматов, Евгений Моргунов, Клара Лучко, Людмила Иванова, Муза Крепкогорская, Тамара Носова, Виктор Авдюшко, Георгий Шаповалов, Юрий Егоров, Виктор Хохряков, Евгений Тетерин, Андрей Файт, Тамара Макарова, Александра Панова, Аза Калашникова, Мария Яроцкая, Лев Фенин, Александра Денисова, Владимир Уральский, Зинаида Воркуль, Александра Харитонова, Сергей Комаров, Григорий Шпигель, Василий Бокарев, Алексей Розанов...
    Описание: Фильм рассказывает о событиях 1942, происшедших в оккупированном фашистами Краснодоне. Вчерашние школьники создают подпольную организацию и начинают свою борьбу: распространяют листовки, освобождают группу пленных красноармейцев, сжигают немецкую биржу, спасая соотечественников от фашистского рабства, в день годовщины Октября развешивают красные флаги. В их действиях, как и в их детском бесстрашии многое идет от игры: ведь еще вчера кое-кто был признанным хулиганом, кое-кто вовсе не помышлял о подвигах, кое-кто не желал выслушивать наставления, подчиняться дисциплине. Но именно благодаря их изобретательности, отчаянной смелости и дерзости удавались самые опасные и самые ошеломляющие акции.


    Источник: DVD9 R5
    Качество фильма видео: DVDRip
    Тип видео видео: AVI
    Информация о видео: 640x480 (4: 3), 25 fps, XviD ~ 1169 kbps avg, 0.152 bit/pixel
    Информация о звуке: 48 kHz, MP3 2.0, 128 kbps
    Раздача от:
    MediaInfo

    Общее
    Полное имя : Molodaya.Gvardia.1948.DVDRip-1.46_New-team_by_AVP_Studio1.avi
    Формат : AVI
    Формат/Информация : Audio Video Interleave
    Размер файла : 779 Мбайт
    Продолжительность : 1 ч. 23 м.
    Общий поток : 1307 Кбит/сек
    Программа кодирования : VirtualDubMod 1.5.10.3 | www.virtualdub-fr.org || (build 2550/release)
    Библиотека кодирования : VirtualDubMod build 2550/release
    Видео
    Идентификатор : 0
    Формат : MPEG-4 Visual
    Профиль формата : Advanced Simple@L5
    Параметр BVOP формата : 1
    Параметр QPel формата : Нет
    Параметр GMC формата : Без точки перехода
    Параметр матрицы формата : Выборочная
    Идентификатор кодека : XVID
    Идентификатор кодека/Подсказка : XviD
    Продолжительность : 1 ч. 23 м.
    Битрейт : 1169 Кбит/сек
    Ширина : 640 пикселей
    Высота : 480 пикселей
    Соотношение сторон : 4: 3
    Частота кадров : 25, 000 кадров/сек
    Цветовое пространство : YUV
    Субдискретизация насыщенности : 4: 2: 0
    Битовая глубина : 8 бит
    Тип развёртки : Прогрессивная
    Метод сжатия : С потерями
    Бит/(Пиксели*Кадры) : 0.152
    Размер потока : 697 Мбайт (89%)
    Библиотека кодирования : XviD 73
    Аудио
    Идентификатор : 1
    Формат : MPEG Audio
    Версия формата : Version 1
    Профиль формата : Layer 3
    Идентификатор кодека : 55
    Идентификатор кодека/Подсказка : MP3
    Продолжительность : 1 ч. 23 м.
    Вид битрейта : Постоянный
    Битрейт : 128 Кбит/сек
    Каналы : 2 канала
    Частота : 48, 0 КГц
    Метод сжатия : С потерями
    Размер потока : 76, 4 Мбайт (10%)
    Выравнивание : Соединение по промежуткам
    Продолжительность промежутка : 40 мс. (1, 00 видеокадр)
    Время предзагрузки промежутка : 504 мс.
    Библиотека кодирования : LAME3.99r
    Залил: AVPStudio

    Онлайн видео Молодая гвардия (1948) DVDRip от New


    Размер скачиваемого торрента: 1.46 GB (1567174656 Bytes)


    Молодая гвардия (1948) DVDRip от New-Team
    загрузка...
    Рейтинг →
     (голосов: 1, оценка 4/5, голосовать можно 1 раз )

    Другие торренты по теме:

  • Шолохов М. А., Фадеев А. А. - Они сражались за Родину. Судьба человека. Молодая гвардия (2010) MP3
  • Серия книг издательства Молодая гвардия Стрела (1969-1990) FB2, DOC, DjVu скачать через торрент бесплатно
  • Молодая гвардия (2015) WEB-DLRip от Files-x
  • Молодая гвардия (2015) HDTVRip 720p от MediaClub
  • Молодая гвардия (2015) HDTVRip от GeneralFilm | КПК
  • Молодая гвардия (2015) WEBRip
  • Молодая гвардия (2015) WEBRip 720p
  • Молодая гвардия (2015) HDTV 1080i от GeneralFilm


    • Комментарии (0):

      Информация

      Информация

        Посетители, находящиеся в группе Гости, не могут оставлять комментарии в данной новости.

        ↓ Меню



        ↓ Опрос

        А Вы добавили сайт в закладки?
        Да
        Не


        Top 10 за месяц (Фильмы)