.
Авторизация | Регистрация
Хочешь лучшие торренты? Добавь свой email!
Добавить
» » Море студеное (1954) DVDRip от New-Team торрент скачать бесплатно




    Море студеное (1954) DVDRip от New-Team торрент скачать бесплатно

    Опубликовал: Админ | Дата: 29-04-2016, 13:42 | Просмотров: 47



    Снималось в: СССР
    Создали в: к/с им. М.Горького
    Категория жанра: драма, история
    Создали в: 1954
    Время просмотра: 01: 27: 17
    Перевод текста: Не требуется
    Субтитры подготовлены: нет
    Оригинальная аудиодорожка: русский
    Главный режиссер: Юрий Егоров

    Актеры

    Николай Крючков, Геннадий Юдин, Михаил Кузнецов, Эльза Леждей, Марк Бернес, Валентин Грачёв, Александра Данилова, Александр Антонов, Анатолий Кубацкий, Александр Пелевин, Георгий Черноволенко, Валентина Телегина, Елена Максимова, Всеволод Тягушев...
    Полный список актёров
    Описание:
    XVIII век, Белое море. Рыбаки уходят на промысел в море. Во время стоянки на необитаемом острове на них нападют пираты и пускают судно на дно. Для их семей они пропали на несколько лет. Фильм основан на реальных событиях.



    Источник: DVD5 R5
    Качество фильма видео: DVDRip
    Тип видео видео: AVI
    Информация о видео: 688x512 (4: 3), 25 fps, XviD ~ 1996 kbps avg, 0.227 bit/pixel
    Информация о звуке: 48 kHz, Dolby Digital AC3 5.1, 384 kbps
    Раздача от:
    MediaInfo

    Общее
    Полное имя : More.studenoe.1954.DVDRip_New-team_by_AVP_Studio.avi
    Формат : AVI
    Формат/Информация : Audio Video Interleave
    Размер файла : 1, 46 Гбайт
    Продолжительность : 1 ч. 27 м.
    Общий поток : 2390 Кбит/сек
    Программа кодирования : VirtualDubMod 1.5.10.3 | www.virtualdub-fr.org || (build 2550/release)
    Библиотека кодирования : VirtualDubMod build 2550/release
    Видео
    Идентификатор : 0
    Формат : MPEG-4 Visual
    Профиль формата : Advanced Simple@L5
    Параметр BVOP формата : 1
    Параметр QPel формата : Нет
    Параметр GMC формата : Без точки перехода
    Параметр матрицы формата : Выборочная
    Идентификатор кодека : XVID
    Идентификатор кодека/Подсказка : XviD
    Продолжительность : 1 ч. 27 м.
    Битрейт : 1996 Кбит/сек
    Ширина : 688 пикселей
    Высота : 512 пикселей
    Соотношение сторон : 4: 3
    Частота кадров : 25, 000 кадров/сек
    Цветовое пространство : YUV
    Субдискретизация насыщенности : 4: 2: 0
    Битовая глубина : 8 бит
    Тип развёртки : Прогрессивная
    Метод сжатия : С потерями
    Бит/(Пиксели*Кадры) : 0.227
    Размер потока : 1, 22 Гбайт (84%)
    Библиотека кодирования : XviD 1.2.1 (UTC 2008-12-04)
    Аудио
    Идентификатор : 1
    Формат : AC-3
    Формат/Информация : Audio Coding 3
    Расширение режима : CM (complete main)
    Параметр Endianness формата : Big
    Идентификатор кодека : 2000
    Продолжительность : 1 ч. 27 м.
    Вид битрейта : Постоянный
    Битрейт : 384 Кбит/сек
    Каналы : 6 каналов
    Расположение каналов : Front: L C R, Side: L R, LFE
    Частота : 48, 0 КГц
    Частота кадров : 31, 250 кадров/сек (1536 spf)
    Метод сжатия : С потерями
    Размер потока : 240 Мбайт (16%)
    Выравнивание : Разделение по промежуткам
    Продолжительность промежутка : 40 мс. (1, 00 видеокадр)
    Время предзагрузки промежутка : 500 мс

    Скриншоты



    Залил: AVPStudio

    Онлайн видео Море студеное (1954) DVDRip от New


    Размер скачиваемого торрента: 1.46 GB (1564618752 Bytes)

    Море студеное (1954) DVDRip от New-Team
    загрузка...
    Рейтинг →
     (голосов: 1, оценка 5/5, голосовать можно 1 раз )

    Другие торренты по теме:

  • Море студеное (1954) DVDRip от New-Team


    • Комментарии (0):

      Информация

      Информация

        Посетители, находящиеся в группе Гости, не могут оставлять комментарии в данной новости.

        ↓ Меню



        ↓ Опрос

        А Вы добавили сайт в закладки?
        Да
        Не


        Top 10 за месяц (Фильмы)