.
Авторизация | Регистрация
» » Чудный мальчик / Boy Wonder (2010) HDRip от MegaPeer | HTB+ скачать торрент бесплатно




    Чудный мальчик / Boy Wonder (2010) HDRip от MegaPeer | HTB+ скачать торрент бесплатно

    Опубликовал: Админ | Дата: 30-04-2016, 05:00 | Просмотров: 87



    Детально о кино
    Русское название: Чудный Мальчик
    Русское название в мировом прокате: Boy Wonder
    Создали в: 2010
    Категория жанра: боевик, триллер, драма
    Главный режиссер: Майкл Мориссей

    Актеры
    Калеб Стейнмейер, Сулай Энао, Билл Сейдж, Дэниэл Стюарт-Шерман, Трэйси Миддендорф, Чак Купер, Джон Шэриан, Кетер Донохью, Джеймс Руссо, Джейк Рандаззо

    Сюжет фильма

    Юноша из Бруклина становится свидетелем жестокого убийства своей матери и растет одержимый лишь одной мыслью, найти убийцу. Так начинается его жизнь, днем он тихий студент отличник, а ночью герой с жаждой мести. Но что такое настоящий герой? И кто решает, что правильно, а что нет? Когда границы добра и зла размыты, двойная жизнь Шона влияет на его психику и навлекает на него опасность.

    Снималось в: США
    Киностудия: Boy Wonder Films
    Время просмотра: 01: 36: 30
    Перевод текста: Профессиональный (многоголосый, закадровый) НТВ+
    Файл
    Тип видео: AVI
    Качество фильма: HDRip
    Информация о видео: XviD, 688x288, 23.976 fps, 939 kbps
    Информация о звуке: MP3, 2 ch, ~128 kbps
    Релиз:
    Скриншоты

    MediaInfo:
    Общее
    Полное имя : Boy.Wonder.2010.HDRip.745MB.MegaPeer.avi
    Формат : AVI
    Формат/Информация : Audio Video Interleave
    Размер файла : 744 Мбайт
    Продолжительность : 1 ч. 36 м.
    Общий поток : 1077 Кбит/сек
    Программа кодирования : VirtualDubMod 1.5.10.3 | www.virtualdub-fr.org || (build 2550/release)
    Библиотека кодирования : VirtualDubMod build 2550/release
    Видео
    Идентификатор : 0
    Формат : MPEG-4 Visual
    Профиль формата : Advanced Simple@L5
    Параметр BVOP формата : 1
    Параметр QPel формата : Нет
    Параметр GMC формата : Без точки перехода
    Параметр матрицы формата : Выборочная
    Идентификатор кодека : XVID
    Идентификатор кодека/Подсказка : XviD
    Продолжительность : 1 ч. 36 м.
    Битрейт : 940 Кбит/сек
    Ширина : 688 пикселей
    Высота : 288 пикселей
    Соотношение сторон : 2, 40: 1
    Частота кадров : 23, 976 (23976/1000) кадра/сек
    Цветовое пространство : YUV
    Субдискретизация насыщенности : 4: 2: 0
    Битовая глубина : 8 бит
    Тип развёртки : Прогрессивная
    Метод сжатия : С потерями
    Бит/(Пиксели*Кадры) : 0.198
    Размер потока : 649 Мбайт (87%)
    Библиотека кодирования : XviD 73
    Аудио
    Идентификатор : 1
    Формат : MPEG Audio
    Версия формата : Version 1
    Профиль формата : Layer 3
    Идентификатор кодека : 55
    Идентификатор кодека/Подсказка : MP3
    Продолжительность : 1 ч. 36 м.
    Вид битрейта : Постоянный
    Битрейт : 128 Кбит/сек
    Каналы : 2 канала
    Частота : 48, 0 КГц
    Метод сжатия : С потерями
    Размер потока : 88, 4 Мбайт (12%)
    Выравнивание : Соединение по промежуткам
    Продолжительность промежутка : 42 мс. (1, 00 видеокадр)
    Время предзагрузки промежутка : 504 мс.
    Библиотека кодирования : LAME3.99r
    Залил: ukollov

    Онлайн видео Чудный мальчик


    Размер скачиваемого торрента: 743.51 MB (779626496 Bytes)


    Чудный мальчик/Boy Wonder (2010) HDRip от MegaPeer | HTB+
    загрузка...
    Рейтинг →
     (голосов: 1, оценка 3/5, голосовать можно 1 раз )

    Другие торренты по теме:



      Комментарии (0):

      Информация

      Информация

        Посетители, находящиеся в группе Гости, не могут оставлять комментарии в данной новости.

        ↓ Меню



        ↓ Опрос

        А Вы добавили сайт в закладки?
        Да
        Не


        Top 10 за неделю (Фильмы)