.
Авторизация | Регистрация
» » Убийца / Sicario (2015) BDRip 1080p от ExKinoRay | D, A | iTunes скачать торрент бесплатно




    Убийца / Sicario (2015) BDRip 1080p от ExKinoRay | D, A | iTunes скачать торрент бесплатно

    Опубликовал: Админ | Дата: 1-05-2016, 05:01 | Просмотров: 80



    Детально о кино
    Русское название: Убийца
    Русское название в мировом прокате: Sicario
    Создали в: 2015
    Категория жанра: Боевик, триллер, драма, криминал, детектив
    Главный режиссер: Дени Вильнёв

    Актеры
    Эмили Блант, Бенисио Дель Торо, Джош Бролин, Виктор Гарбер, Джон Бернтал, Дэниэл Калуя, Джеффри Донован, Рауль Трухильо, Хулио Седильо, Хэнк Роджерсон, Бернардо Галлегос, Максимилиано Эрнандес, Кевин Уиггинс, Эдгар Арреола, Ким Нив, Хесус Неварес-Кастилло, Дилан Кенин, Джон Трехо, Марти Линдси, Алекс Найт

    Сюжет фильма

    Кейт Мэйсер (Эмили Блант) - агент ФБР в Аризоне. Она со своей группой занимается расследованиями похищений и арестами подозреваемых в совершении преступлений. Ну, знаете, выбить дверь, ворваться в помещение с криком: Это ФБР, лечь на пол, руки за голову!, а потом всех арестовать к чертям. В своей работе Кейт иногда приходится натыкаться на совершенно жуткие строения, в стенах которых полно трупов, замотанных скотчем, - это все результат деятельности мексиканских наркокартелей. В один из дней Кейт призвали под светлые очи начальника Дэйва Дженнингса (Виктор Гарбер), рядом с которым сидел сурового вида мужчина по имени Мэтт Грейвер (Джош Бролин). Начальник объяснил Кейт, что Мэтт в составе своей группы пытается добраться до главы крупного мексиканского картеля - то есть до человека, ответственного за сотни и тысячи смертей, - и Мэтт нуждается в поддержке. Так что если ты, Кейт, согласна посотрудничать с группой Мэтта, сказал начальник, мы тебя к нему прикрепим.

    Снималось в: США
    Киностудия: Black Label Media, Lionsgate, Thunder Road
    Время просмотра: 02: 01: 20
    Перевод текста: Дублированный | iTunes
    Авторский одноголосый (закадровый)
    Файл
    Кодек для видео: MPEG-4
    Качество фильма: BDRip 1080p
    Информация о видео: 1920x800, 12.1 Mbit/s, 23.976 fps
    Информация о звуке:
    Информация о звуке #01: 48 kHz, AC3, 5.1, 384 Kbps | Дублированный, iTunes |
    Информация о звуке #02: 48 kHz, AC3, 5.1, 640 Kbps | Авторский одноголосый (закадровый), Юрий Живов |
    Информация о звуке #03: 48 kHz, AC3, 5.1, 448 Kbps | Авторский одноголосый (закадровый), Юрий Немахов |
    Информация о звуке #04: 48 kHz, DTS, 5.1, 1536 Kbps | Авторский одноголосый (закадровый), Алексей Doctor_Joker Матвеев |
    Информация о звуке #05: 48 kHz, DTS, 5.1, 1536 Kbps | Авторский одноголосый (закадровый), Дмитрий Есарев (ненормативный) |
    Информация о звуке #06: 48 kHz, AC3, 5.1, 448 Kbps | Авторский одноголосый (закадровый), Дмитрий Есарев (цензура) |
    Информация о звуке #07: 48 kHz, AC3, 5.1, 640 kbps | Оригинал |
    Субтитры: Русские (форсированные, полные |Воронин (srt, SDH), Матвеев|), английские (форсированные, srt, SDH)
    Релиз подготовил: Автор релиза:

    MI
    Общее
    Уникальный идентификатор : 192670446231805728374749828710828755556 (0x90F2FA69FAEA3EC2AF212EDD1F6E4A64)
    Полное имя : F: VideoSicario.2015.BDRip.1080p.ExKinoRay.mkv
    Формат : Matroska
    Версия формата : Version 4/Version 2
    Размер файла : 15, 0 Гбайт
    Продолжительность : 2 ч. 1 м.
    Общий поток : 17, 7 Мбит/сек
    Название фильма : Sicario.2015.BDRip.1080p.ExKinoRay
    Дата кодирования : UTC 2016-04-30 19: 29: 34
    Программа кодирования : mkvmerge v8.3.0 (;Over the Horizon;) 64bit
    Библиотека кодирования : libebml v1.3.1 + libmatroska v1.4.2
    Видео
    Идентификатор : 1
    Формат : AVC
    Формат/Информация : Advanced Video Codec
    Профиль формата : High@L4.1
    Параметр CABAC формата : Да
    Параметр ReFrames формата : 5 кадров
    Идентификатор кодека : V_MPEG4/ISO/AVC
    Продолжительность : 2 ч. 1 м.
    Битрейт : 12, 1 Мбит/сек
    Ширина : 1920 пикселей
    Высота : 800 пикселей
    Соотношение сторон : 2, 40: 1
    Режим частоты кадров : Постоянный
    Частота кадров : 23, 976 (24000/1001) кадра/сек
    Цветовое пространство : YUV
    Субдискретизация насыщенности : 4: 2: 0
    Битовая глубина : 8 бит
    Тип развёртки : Прогрессивная
    Бит/(Пиксели*Кадры) : 0.328
    Размер потока : 10, 2 Гбайт (68%)
    Библиотека кодирования : x264 core 142 r2431+42 c69a006 tMod 8-bit@all X86_64
    Настройки программы : cabac=1/ref=5/deblock=1: -3: -3/analyse=0x3: 0x133/me=umh/subme=11/psy=1/fade_compensate=0.00/psy_rd=1.05: 0.00/mixed_ref=1/me_range=32/chroma_me=1/trellis=2/8x8dct=1/cqm=0/deadzone=21, 11/fast_pskip=0/chroma_qp_offset=-2/threads=12/lookahead_threads=3/sliced_threads=0/nr=0/decimate=0/interlaced=0/bluray_compat=0/constrained_intra=0/fgo=0/bframes=11/b_pyramid=2/b_adapt=2/b_bias=0/direct=3/weightb=1/open_gop=0/weightp=2/keyint=240/keyint_min=23/scenecut=40/intra_refresh=0/rc_lookahead=60/rc=crf/mbtree=0/crf=16.0000/qcomp=0.65/qpmin=0: 0: 0/qpmax=69: 69: 69/qpstep=4/vbv_maxrate=62500/vbv_bufsize=78125/crf_max=0.0/nal_hrd=none/filler=0/ip_ratio=1.24/pb_ratio=1.18/aq=3: 0.80/aq-sensitivity=10.00/aq-factor=1.00: 1.00: 1.00/aq2=0/aq3=0
    Язык : English
    Default : Да
    Forced : Нет
    Цветовой диапазон : Limited
    Коэффициенты матрицы : BT.709
    Аудио #1
    Идентификатор : 2
    Формат : AC-3
    Формат/Информация : Audio Coding 3
    Расширение режима : CM (complete main)
    Параметр Endianness формата : Big
    Идентификатор кодека : A_AC3
    Продолжительность : 2 ч. 1 м.
    Вид битрейта : Постоянный
    Битрейт : 384 Кбит/сек
    Каналы : 6 каналов
    Расположение каналов : Front: L C R, Side: L R, LFE
    Частота : 48, 0 КГц
    Частота кадров : 31, 250 кадров/сек (1536 spf)
    Метод сжатия : С потерями
    Размер потока : 333 Мбайт (2%)
    Заголовок : DUBBING
    Язык : Russian
    Default : Да
    Forced : Нет
    Аудио #2
    Идентификатор : 3
    Формат : AC-3
    Формат/Информация : Audio Coding 3
    Расширение режима : CM (complete main)
    Параметр Endianness формата : Big
    Идентификатор кодека : A_AC3
    Продолжительность : 2 ч. 1 м.
    Вид битрейта : Постоянный
    Битрейт : 640 Кбит/сек
    Каналы : 6 каналов
    Расположение каналов : Front: L C R, Side: L R, LFE
    Частота : 48, 0 КГц
    Частота кадров : 31, 250 кадров/сек (1536 spf)
    Метод сжатия : С потерями
    Размер потока : 555 Мбайт (4%)
    Заголовок : AVO GIVOV
    Язык : Russian
    Default : Нет
    Forced : Нет
    Аудио #3
    Идентификатор : 4
    Формат : AC-3
    Формат/Информация : Audio Coding 3
    Расширение режима : CM (complete main)
    Параметр Endianness формата : Big
    Идентификатор кодека : A_AC3
    Продолжительность : 2 ч. 1 м.
    Вид битрейта : Постоянный
    Битрейт : 448 Кбит/сек
    Каналы : 6 каналов
    Расположение каналов : Front: L C R, Side: L R, LFE
    Частота : 48, 0 КГц
    Частота кадров : 31, 250 кадров/сек (1536 spf)
    Метод сжатия : С потерями
    Размер потока : 389 Мбайт (3%)
    Заголовок : AVO NEMAHOV
    Язык : Russian
    Default : Нет
    Forced : Нет
    Аудио #4
    Идентификатор : 5
    Формат : DTS
    Формат/Информация : Digital Theater Systems
    Режим : 16
    Параметр Endianness формата : Big
    Идентификатор кодека : A_DTS
    Продолжительность : 2 ч. 1 м.
    Вид битрейта : Постоянный
    Битрейт : 1536 Кбит/сек
    Каналы : 6 каналов
    Расположение каналов : Front: L C R, Side: L R, LFE
    Частота : 48, 0 КГц
    Частота кадров : 93, 750 кадра/сек (512 spf)
    Битовая глубина : 16 бит
    Метод сжатия : С потерями
    Размер потока : 1, 30 Гбайт (9%)
    Заголовок : AVO DOCTOR.JOKER_MATVEEV
    Язык : Russian
    Default : Нет
    Forced : Нет
    Аудио #5
    Идентификатор : 6
    Формат : DTS
    Формат/Информация : Digital Theater Systems
    Режим : 16
    Параметр Endianness формата : Big
    Идентификатор кодека : A_DTS
    Продолжительность : 2 ч. 1 м.
    Вид битрейта : Постоянный
    Битрейт : 1536 Кбит/сек
    Каналы : 6 каналов
    Расположение каналов : Front: L C R, Side: L R, LFE
    Частота : 48, 0 КГц
    Частота кадров : 93, 750 кадра/сек (512 spf)
    Битовая глубина : 16 бит
    Метод сжатия : С потерями
    Размер потока : 1, 30 Гбайт (9%)
    Заголовок : AVO ESAREV_nenorm.
    Язык : Russian
    Default : Нет
    Forced : Нет
    Аудио #6
    Идентификатор : 7
    Формат : AC-3
    Формат/Информация : Audio Coding 3
    Расширение режима : CM (complete main)
    Параметр Endianness формата : Big
    Идентификатор кодека : A_AC3
    Продолжительность : 2 ч. 1 м.
    Вид битрейта : Постоянный
    Битрейт : 448 Кбит/сек
    Каналы : 6 каналов
    Расположение каналов : Front: L C R, Side: L R, LFE
    Частота : 48, 0 КГц
    Частота кадров : 31, 250 кадров/сек (1536 spf)
    Метод сжатия : С потерями
    Размер потока : 389 Мбайт (3%)
    Заголовок : AVO ESAREV_cenz.
    Язык : Russian
    Default : Нет
    Forced : Нет
    Аудио #7
    Идентификатор : 8
    Формат : AC-3
    Формат/Информация : Audio Coding 3
    Расширение режима : CM (complete main)
    Параметр Endianness формата : Big
    Идентификатор кодека : A_AC3
    Продолжительность : 2 ч. 1 м.
    Вид битрейта : Постоянный
    Битрейт : 640 Кбит/сек
    Каналы : 6 каналов
    Расположение каналов : Front: L C R, Side: L R, LFE
    Частота : 48, 0 КГц
    Частота кадров : 31, 250 кадров/сек (1536 spf)
    Метод сжатия : С потерями
    Размер потока : 555 Мбайт (4%)
    Язык : English
    Default : Нет
    Forced : Нет
    Текст #1
    Идентификатор : 9
    Формат : UTF-8
    Идентификатор кодека : S_TEXT/UTF8
    Идентификатор кодека/Информация : UTF-8 Plain Text
    Продолжительность : 1 ч. 42 м.
    Битрейт : 7 бит/сек
    Count of elements : 85
    Размер потока : 5, 26 Кбайт (0%)
    Заголовок : forced
    Язык : Russian
    Default : Да
    Forced : Нет
    Текст #2
    Идентификатор : 10
    Формат : UTF-8
    Идентификатор кодека : S_TEXT/UTF8
    Идентификатор кодека/Информация : UTF-8 Plain Text
    Продолжительность : 1 ч. 54 м.
    Битрейт : 61 бит/сек
    Count of elements : 1037
    Размер потока : 52, 1 Кбайт (0%)
    Заголовок : Doctor_Joker
    Язык : Russian
    Default : Нет
    Forced : Нет
    Текст #3
    Идентификатор : 11
    Формат : UTF-8
    Идентификатор кодека : S_TEXT/UTF8
    Идентификатор кодека/Информация : UTF-8 Plain Text
    Продолжительность : 1 ч. 55 м.
    Битрейт : 69 бит/сек
    Count of elements : 1079
    Размер потока : 58, 2 Кбайт (0%)
    Заголовок : VORONIN
    Язык : Russian
    Default : Нет
    Forced : Нет
    Текст #4
    Идентификатор : 12
    Формат : UTF-8
    Идентификатор кодека : S_TEXT/UTF8
    Идентификатор кодека/Информация : UTF-8 Plain Text
    Продолжительность : 1 ч. 55 м.
    Битрейт : 79 бит/сек
    Count of elements : 1278
    Размер потока : 67, 3 Кбайт (0%)
    Заголовок : VORONIN SDH
    Язык : Russian
    Default : Нет
    Forced : Нет
    Текст #5
    Идентификатор : 13
    Формат : UTF-8
    Идентификатор кодека : S_TEXT/UTF8
    Идентификатор кодека/Информация : UTF-8 Plain Text
    Продолжительность : 1 ч. 33 м.
    Битрейт : 4 бит/сек
    Count of elements : 138
    Размер потока : 2, 83 Кбайт (0%)
    Заголовок : Forced
    Язык : English
    Default : Нет
    Forced : Нет
    Текст #6
    Идентификатор : 14
    Формат : UTF-8
    Идентификатор кодека : S_TEXT/UTF8
    Идентификатор кодека/Информация : UTF-8 Plain Text
    Продолжительность : 1 ч. 50 м.
    Битрейт : 44 бит/сек
    Count of elements : 1044
    Размер потока : 35, 9 Кбайт (0%)
    Заголовок : ORIGINAL
    Язык : English
    Default : Нет
    Forced : Нет
    Текст #7
    Идентификатор : 15
    Формат : UTF-8
    Идентификатор кодека : S_TEXT/UTF8
    Идентификатор кодека/Информация : UTF-8 Plain Text
    Продолжительность : 1 ч. 53 м.
    Битрейт : 48 бит/сек
    Count of elements : 1231
    Размер потока : 40, 1 Кбайт (0%)
    Заголовок : SDH
    Язык : English
    Default : Нет
    Forced : Нет
    Меню
    00: 00: 00.000 : en: Chapter 1
    00: 07: 14.350 : en: Chapter 2
    00: 12: 55.107 : en: Chapter 3
    00: 20: 04.369 : en: Chapter 4
    00: 25: 24.814 : en: Chapter 5
    00: 32: 11.596 : en: Chapter 6
    00: 39: 24.820 : en: Chapter 7
    00: 46: 15.314 : en: Chapter 8
    00: 53: 24.576 : en: Chapter 9
    01: 01: 40.321 : en: Chapter 10
    01: 10: 49.119 : en: Chapter 11
    01: 18: 02.886 : en: Chapter 12
    01: 30: 59.370 : en: Chapter 13
    01: 36: 57.770 : en: Chapter 14
    01: 47: 42.038 : en: Chapter 15
    01: 54: 12.804 : en: Chapter 16
    Скриншоты


    Онлайн видео Убийца


    Размер скачиваемого торрента: 15.01 GB (16113659535 Bytes)

    Убийца/Sicario (2015) BDRip 1080p от ExKinoRay | D, A | iTunes
    загрузка...
    Рейтинг →
     (голосов: 1, оценка 4/5, голосовать можно 1 раз )

    Другие торренты по теме:

  • Убийца / Sicario (2015) HDRip | Звук с CAMRip скачать торрент бесплатно
  • Убийца / Sicario (2015) HDRip | Есарев скачать торрент бесплатно
  • Убийца / Sicario (2015) НDRip | Есарев скачать торрент бесплатно
  • Убийца / Sicario (2015) HDRip от Scarabey | Без Цензуры | Есарев скачать торрент бесплатно
  • Убийца / Sicario (2015) BDRip 1080p | Чистый звук скачать торрент бесплатно
  • Убийца / Sicario (2015) BDRip 720p от Scarabey | Есарев скачать торрент бесплатно
  • Убийца / Sicario (2015) BDRip 1080p от NNNB | A скачать торрент бесплатно
  • Убийца / Sicario (2015) BDRip-AVC от NNNB | A скачать торрент бесплатно


    • Комментарии (0):

      Информация

      Информация

        Посетители, находящиеся в группе Гости, не могут оставлять комментарии в данной новости.

        ↓ Меню



        ↓ Опрос

        А Вы добавили сайт в закладки?
        Да
        Не


        Top 10 за неделю (Фильмы)