.
Авторизация | Регистрация
Хочешь лучшие торренты? Добавь свой email!
Добавить
» » Запасной игрок (1954) DVDRip от New-Team торрент скачать бесплатно




    Запасной игрок (1954) DVDRip от New-Team торрент скачать бесплатно

    Опубликовал: Админ | Дата: 1-05-2016, 20:41 | Просмотров: 109



    Снималось в: СССР
    Создали в: Ленфильм
    Категория жанра: комедия, спорт
    Создали в: 1954
    Время просмотра: 01: 18: 07
    Перевод текста: Не требуется
    Субтитры подготовлены: нет
    Оригинальная аудиодорожка: русский
    Главный режиссер: Семен Тимошенко

    Актеры

    Георгий Вицин, Всеволод Кузнецов, Елена Тяпкина, Павел Кадочников, Татьяна Конюхова, Валентина Ушакова, Марк Бернес, Константин Адашевский, Владимир Белокуров, Павел Поль, Александр Жуков (II), Эльвира (Эльва) Луценко...
    Полный список актёров
    Описание:
    Заводская команда Синих Стрел выходит в финал и отправляется в Сухуми на теплоходе для встречи с Вымпелом, считающимся фаворитом. Подающий надежды запасной игрок Вася Веснушкин влюблен в гимнастку, опасаясь, что та предпочитает зазнавшегося старшего брата, лучшего игрока той же команды. На борту находится также актер кино Светланов, переодетый стариком Дедушкиным для лучшего проникновения в образ будущей роли. Сотрудники института геронтологии принимают старика за профессора из Москвы Бабушкина...



    Источник: DVD5 R5
    Качество фильма видео: DVDRip
    Тип видео видео: AVI
    Информация о видео: 688x512 (4: 3), 25 fps, XviD ~ 1537 kbps avg, 0.174 bit/pixel
    Информация о звуке: 48 kHz, Dolby Digital AC3 5.1, 448 kbps
    Раздача от:
    MediaInfo

    Общее
    Полное имя : Zapasnoy.igrok.1954.DVDRip_New-team_by_AVP_Studio.avi
    Формат : AVI
    Формат/Информация : Audio Video Interleave
    Размер файла : 1, 09 Гбайт
    Продолжительность : 1 ч. 18 м.
    Общий поток : 1994 Кбит/сек
    Программа кодирования : VirtualDubMod 1.5.10.3 | www.virtualdub-fr.org || (build 2550/release)
    Библиотека кодирования : VirtualDubMod build 2550/release
    Видео
    Идентификатор : 0
    Формат : MPEG-4 Visual
    Профиль формата : Advanced Simple@L5
    Параметр BVOP формата : 1
    Параметр QPel формата : Нет
    Параметр GMC формата : Без точки перехода
    Параметр матрицы формата : Выборочная
    Идентификатор кодека : XVID
    Идентификатор кодека/Подсказка : XviD
    Продолжительность : 1 ч. 18 м.
    Битрейт : 1537 Кбит/сек
    Ширина : 688 пикселей
    Высота : 512 пикселей
    Соотношение сторон : 4: 3
    Частота кадров : 25, 000 кадров/сек
    Цветовое пространство : YUV
    Субдискретизация насыщенности : 4: 2: 0
    Битовая глубина : 8 бит
    Тип развёртки : Прогрессивная
    Метод сжатия : С потерями
    Бит/(Пиксели*Кадры) : 0.174
    Размер потока : 859 Мбайт (77%)
    Библиотека кодирования : XviD 1.2.1 (UTC 2008-12-04)
    Аудио
    Идентификатор : 1
    Формат : AC-3
    Формат/Информация : Audio Coding 3
    Расширение режима : CM (complete main)
    Параметр Endianness формата : Big
    Идентификатор кодека : 2000
    Продолжительность : 1 ч. 18 м.
    Вид битрейта : Постоянный
    Битрейт : 448 Кбит/сек
    Каналы : 6 каналов
    Расположение каналов : Front: L C R, Side: L R, LFE
    Частота : 48, 0 КГц
    Частота кадров : 31, 250 кадров/сек (1536 spf)
    Метод сжатия : С потерями
    Размер потока : 250 Мбайт (22%)
    Выравнивание : Разделение по промежуткам
    Продолжительность промежутка : 40 мс. (1, 00 видеокадр)
    Время предзагрузки промежутка : 500 мс

    Скриншоты



    Залил: AVPStudio

    Онлайн видео Запасной игрок (1954) DVDRip от New


    Размер скачиваемого торрента: 1.09 GB (1168498688 Bytes)

    Запасной игрок (1954) DVDRip от New-Team
    загрузка...
    Рейтинг →
     (голосов: 1, оценка 5/5, голосовать можно 1 раз )

    Другие торренты по теме:



      Комментарии (0):

      Информация

      Информация

        Посетители, находящиеся в группе Гости, не могут оставлять комментарии в данной новости.

        ↓ Меню



        ↓ Опрос

        А Вы добавили сайт в закладки?
        Да
        Не


        Top 10 за месяц (Фильмы)