.
Авторизация | Регистрация
» » Идеальный день / A Perfect Day (2015) HDRip от MegaPeer | L скачать торрент бесплатно




    Идеальный день / A Perfect Day (2015) HDRip от MegaPeer | L скачать торрент бесплатно

    Опубликовал: Админ | Дата: 3-05-2016, 05:00 | Просмотров: 87



    Детально о кино
    Русское название: Идеальный день
    Русское название в мировом прокате: A Perfect Day
    Создали в: 2015
    Категория жанра: драма
    Главный режиссер: Фернандо Леон Де Араноа

    Актеры
    Бенисио Дель Торо, Тим Роббинс, Ольга Куриленко, Мелани Тьерри, Федя Стукан, Eldar Residovic, Серхи Лопес, Ненад Вукелич, Франк Фейс, Мортен Суурбалле

    Сюжет фильма

    Группа сотрудников гуманитарной службы пытается достать труп из колодца в зоне конфликта. Кто-то бросил туда тело, чтобы отравить воду, и местные люди мучаются от жажды. Задача, которая кажется простейшей, превращается в невыполнимую миссию, в которой злейший враг — иррациональность. Работники пересекают местность, охваченную войной, пытаясь решить эту проблему.

    Снималось в: Испания
    Киностудия: Mediapro, Reposado Producciones, Televisi?n Espa?ola (TVE)
    Время просмотра: 01: 46: 00
    Перевод текста: Любительский (многоголосый) Paradox Omskbird records
    Файл
    Тип видео: AVI
    Качество фильма: HDRip
    Информация о видео: XviD, 688x288, 24 fps, 849 kbps
    Информация о звуке: MP3, 2 ch, ~128 kbps
    Релиз:
    Скриншоты

    MediaInfo:
    Общее
    Полное имя : A.Perfect.Day.2015.HDRip.745MB.MegaPeer.avi
    Формат : AVI
    Формат/Информация : Audio Video Interleave
    Размер файла : 748 Мбайт
    Продолжительность : 1 ч. 45 м.
    Общий поток : 987 Кбит/сек
    Программа кодирования : VirtualDubMod 1.5.10.3 | www.virtualdub-fr.org || (build 2550/release)
    Библиотека кодирования : VirtualDubMod build 2550/release
    Видео
    Идентификатор : 0
    Формат : MPEG-4 Visual
    Профиль формата : Advanced Simple@L5
    Параметр BVOP формата : 1
    Параметр QPel формата : Нет
    Параметр GMC формата : Без точки перехода
    Параметр матрицы формата : Выборочная
    Идентификатор кодека : XVID
    Идентификатор кодека/Подсказка : XviD
    Продолжительность : 1 ч. 45 м.
    Битрейт : 849 Кбит/сек
    Ширина : 688 пикселей
    Высота : 288 пикселей
    Соотношение сторон : 2, 40: 1
    Частота кадров : 24, 000 кадра/сек
    Цветовое пространство : YUV
    Субдискретизация насыщенности : 4: 2: 0
    Битовая глубина : 8 бит
    Тип развёртки : Прогрессивная
    Метод сжатия : С потерями
    Бит/(Пиксели*Кадры) : 0.179
    Размер потока : 644 Мбайт (86%)
    Библиотека кодирования : XviD 73
    Аудио
    Идентификатор : 1
    Формат : MPEG Audio
    Версия формата : Version 1
    Профиль формата : Layer 3
    Идентификатор кодека : 55
    Идентификатор кодека/Подсказка : MP3
    Продолжительность : 1 ч. 45 м.
    Вид битрейта : Постоянный
    Битрейт : 128 Кбит/сек
    Каналы : 2 канала
    Частота : 48, 0 КГц
    Метод сжатия : С потерями
    Размер потока : 97, 0 Мбайт (13%)
    Выравнивание : Соединение по промежуткам
    Продолжительность промежутка : 42 мс. (1, 00 видеокадр)
    Время предзагрузки промежутка : 504 мс.
    Библиотека кодирования : LAME3.99r
    Залил: ukollov

    Онлайн видео Идеальный день


    Размер скачиваемого торрента: 748.05 MB (784392192 Bytes)


    Идеальный день/A Perfect Day (2015) HDRip от MegaPeer | L
    загрузка...
    Рейтинг →
     (голосов: 1, оценка 5/5, голосовать можно 1 раз )

    Другие торренты по теме:

  • Реальность: Идеальный день для плезиозавра / Riaru: Kanzen naru kubinagaryû no hi / 2013 / ЛО, СТ / WEB-DLRip скачать торрент бесплатно
  • Идеальный день / A Perfect Day (2015) HDRip от Scarabey | L скачать торрент бесплатно


    • Комментарии (0):

      Информация

      Информация

        Посетители, находящиеся в группе Гости, не могут оставлять комментарии в данной новости.

        ↓ Меню



        ↓ Опрос

        А Вы добавили сайт в закладки?
        Да
        Не


        Top 10 за неделю (Фильмы)