.
Авторизация | Регистрация
» » Конец / The End (1978) BDRip от MegaPeer | P2 скачать торрент бесплатно




    Конец / The End (1978) BDRip от MegaPeer | P2 скачать торрент бесплатно

    Опубликовал: Админ | Дата: 3-05-2016, 05:00 | Просмотров: 95



    Детально о кино
    Русское название: Конец
    Русское название в мировом прокате: The End
    Создали в: 1978
    Категория жанра: Комедия, драма
    Главный режиссер: Берт Рейнолдс

    Актеры
    Бёрт Рейнолдс, Дом ДеЛуиз, Салли Филд, Строзер Мартин, Дэвид Стейнберг, Джоанн Вудворд, Норман Фелл, Мирна Лой, Кристи МакНикол, Пэт О;Брайен, Робби Бенсон, Карл Райнер

    Сюжет фильма

    Сонни узнает, что он умирает от редкой болезни и жить ему осталось не более шести месяцев. Он решает, что лучше покончить жизнь самоубийством, чем жить в ожидании близкой смерти. Приняв смертельную (по его мнению) дозу снотворного он, однако, просыпается на следующее утро в психиатрической клинике, где знакомится с Марлоном, одним из пациентов. Марлон всячески старается помочь Сонни уйти из жизни, но все их усилия ни к чему не приводят. Наконец, во время неудачной попытки утопиться, Сонни понимает, что хочет продолжать жить. Однако, Марлон думает иначе.

    Снималось в: США
    Киностудия: Gordon-Reynolds Productions
    Время просмотра: 01: 40: 45
    Перевод текста: Профессиональный (двухголосый, закадровый) | НТВ+
    Файл
    Тип видео: AVI
    Качество фильма: BDRip
    Информация о видео: XviD, 704x384, 23.976 fps, 1857 kbps
    Информация о звуке: AC3, 2 ch, ~192 kbps
    Релиз:
    Скриншоты

    MediaInfo:
    Общее
    Полное имя : The.End.1978.BDRip.1450MB.MegaPeer.avi
    Формат : AVI
    Формат/Информация : Audio Video Interleave
    Размер файла : 1, 45 Гбайт
    Продолжительность : 1 ч. 40 м.
    Общий поток : 2059 Кбит/сек
    Программа кодирования : VirtualDubMod 1.5.10.3 | www.virtualdub-fr.org || (build 2550/release)
    Библиотека кодирования : VirtualDubMod build 2550/release
    Видео
    Идентификатор : 0
    Формат : MPEG-4 Visual
    Профиль формата : Advanced Simple@L5
    Параметр BVOP формата : 1
    Параметр QPel формата : Нет
    Параметр GMC формата : Без точки перехода
    Параметр матрицы формата : Выборочная
    Идентификатор кодека : XVID
    Идентификатор кодека/Подсказка : XviD
    Продолжительность : 1 ч. 40 м.
    Битрейт : 1857 Кбит/сек
    Ширина : 704 пикселя
    Высота : 384 пикселя
    Соотношение сторон : 1, 85: 1
    Частота кадров : 23, 976 (23976/1000) кадра/сек
    Цветовое пространство : YUV
    Субдискретизация насыщенности : 4: 2: 0
    Битовая глубина : 8 бит
    Тип развёртки : Прогрессивная
    Метод сжатия : С потерями
    Бит/(Пиксели*Кадры) : 0.287
    Размер потока : 1, 31 Гбайт (90%)
    Библиотека кодирования : XviD 73
    Аудио
    Идентификатор : 1
    Формат : AC-3
    Формат/Информация : Audio Coding 3
    Расширение режима : CM (complete main)
    Параметр Endianness формата : Big
    Идентификатор кодека : 2000
    Продолжительность : 1 ч. 40 м.
    Вид битрейта : Постоянный
    Битрейт : 192 Кбит/сек
    Каналы : 2 канала
    Расположение каналов : Front: L R
    Частота : 48, 0 КГц
    Частота кадров : 31, 250 кадров/сек (1536 spf)
    Метод сжатия : С потерями
    Размер потока : 138 Мбайт (9%)
    Выравнивание : Разделение по промежуткам
    Продолжительность промежутка : 42 мс. (1, 00 видеокадр)
    Время предзагрузки промежутка : 500 мс.

    Залил: ukollov
    Размер скачиваемого торрента: 1.45 GB (1555523584 Bytes)

    Конец/The End (1978) BDRip от MegaPeer | P2
    загрузка...
    Рейтинг →
     (голосов: 1, оценка 4/5, голосовать можно 1 раз )

    Другие торренты по теме:

  • Конец света / End of Days (1999) BDRip от Torrent-Xzona | КПК торрент скачать бесплатно
  • Новый мир: Начало / Загрузка / Конец / Arata-naru Sekai: Worlds / Start / Load / End (2012) BDRip торрент скачать бесплатно
  • Конец света / Крах / Collapse / Collapse of the Living Dead (2010) BDRip-AVC от MediaClub торрент скачать бесплатно
  • Конец света 2013: Апокалипсис по-голливудски / This Is the End (2013) BDRip 720p | Звук с TS скачать бесплатно через торрент
  • Конец света 2013: Апокалипсис по-голливудски / This Is the End (2013) BDRip | Звук с TS скачать бесплатно через торрент
  • Конец света 2013: Апокалипсис по-голливудски / This Is the End (2013) BDRip-AVC от ExKinoRay | Чистый звук скачать через торрент бесплатно
  • Конец света 2013: Апокалипсис по-голливудски / This Is the End (2013) BDRip 720p | Чистый звук скачать через торрент бесплатно
  • Конец света 2013: Апокалипсис по-голливудски / This Is the End (2013) BDRip | Чистый звук скачать через торрент бесплатно


    • Комментарии (0):

      Информация

      Информация

        Посетители, находящиеся в группе Гости, не могут оставлять комментарии в данной новости.

        ↓ Меню



        ↓ Опрос

        А Вы добавили сайт в закладки?
        Да
        Не


        Top 10 за неделю (Фильмы)