.
Авторизация | Регистрация
» » Антикиллер 2: Антитеррор (2003) DVDRip-AVC от NNMClub скачать торрент бесплатно




    Антикиллер 2: Антитеррор (2003) DVDRip-AVC от NNMClub скачать торрент бесплатно

    Опубликовал: Админ | Дата: 3-05-2016, 17:52 | Просмотров: 81



    Создали в: Россия/Rex Media
    Категория жанра: Боевик, Криминал
    Главный режиссер: Егор Михалков-Кончаловский
    Актеры: Гоша Куценко, Сергей Шакуров, Иван Бортник, Любовь Толкалина, Вячеслав Разбегаев, Сергей Векслер, Михаил Ефремов, Любомир Лауцявичус, Алексей Серебряков, Евгений Стычкин, Алексей Булдаков, Владимир Стеклов

    Описание фильма

    Россия. Начало 21-го века. Со времени событий первого Антикиллера прошло 10 лет. Мир изменился. Границы между странами стали практически прозрачными.
    И на первый план вышла прямая и явная угроза — терроризм, не имеющий национальности и угрожающий безопасности всего мира. Крепкий орешек Лис пытается сорвать планы террористов уничтожить многомиллионный город. Схватка будет смертельной и бескомпромиссной…

    Дата выхода DVD релиза: 2 апреля 2009, Мьюзик-Трейд
    Возраст: 16+(зрителям, достигшим 16 лет)
    Релиз подготовил: K.E.N(NNM-CLUB)
    Время просмотра: 02: 06: 05
    Качество фильма видео: DVDRip
    Информация о видео: AVC, 1024x432 (2.35: 1), 25 fps, 2 020 Kbps (0.183 bit/pixel)
    Информация о звуке: AC-3, 48.0 KHz, 6 ch, 448 Kbps, CBR
    Mediainfo:
    code
    Формат : Matroska
    Версия формата : Version 2
    Размер файла : 2, 18 Гбайт
    Продолжительность : 2 ч. 6 м.
    Общий поток : 2469 Кбит/сек
    Дата кодирования : UTC 2016-05-02 02: 37: 59
    Программа кодирования : mkvmerge v5.3.0 (;I could have danced;) built on Feb 9 2012 10: 38: 07
    Библиотека кодирования : libebml v1.2.3 + libmatroska v1.3.0
    Attachment : Yes
    Видео
    Идентификатор : 1
    Формат : AVC
    Формат/Информация : Advanced Video Codec
    Профиль формата : High@L4.1
    Параметр CABAC формата : Да
    Параметр ReFrames формата : 10 кадров
    Идентификатор кодека : V_MPEG4/ISO/AVC
    Продолжительность : 2 ч. 6 м.
    Битрейт : 2020 Кбит/сек
    Ширина : 1024 пикселя
    Высота : 432 пикселя
    Соотношение сторон : 2, 40: 1
    Режим частоты кадров : Постоянный
    Частота кадров : 25, 000 кадров/сек
    Цветовое пространство : YUV
    Субдискретизация насыщенности : 4: 2: 0
    Битовая глубина : 8 бит
    Тип развёртки : Прогрессивная
    Бит/(Пиксели*Кадры) : 0.183
    Размер потока : 1, 74 Гбайт (80%)
    Библиотека кодирования : x264 core 146 r2538 121396c
    Настройки программы : cabac=1/ref=10/deblock=1: -3: -3/analyse=0x3: 0x133/me=umh/subme=10/psy=1/psy_rd=1.00: 0.10/mixed_ref=1/me_range=32/chroma_me=1/trellis=2/8x8dct=1/cqm=0/deadzone=21, 11/fast_pskip=0/chroma_qp_offset=-3/threads=12/lookahead_threads=2/sliced_threads=0/nr=0/decimate=0/interlaced=0/bluray_compat=0/constrained_intra=0/bframes=8/b_pyramid=2/b_adapt=2/b_bias=0/direct=3/weightb=1/open_gop=0/weightp=2/keyint=240/keyint_min=23/scenecut=40/intra_refresh=0/rc=2pass/mbtree=0/bitrate=2020/ratetol=1.0/qcomp=0.60/qpmin=0/qpmax=69/qpstep=4/cplxblur=20.0/qblur=0.5/ip_ratio=1.40/pb_ratio=1.30/aq=1: 0.90
    Default : Да
    Forced : Нет
    Аудио
    Идентификатор : 2
    Формат : AC-3
    Формат/Информация : Audio Coding 3
    Расширение режима : CM (complete main)
    Параметр Endianness формата : Big
    Идентификатор кодека : A_AC3
    Продолжительность : 2 ч. 6 м.
    Вид битрейта : Постоянный
    Битрейт : 448 Кбит/сек
    Каналы : 6 каналов
    Расположение каналов : Front: L C R, Side: L R, LFE
    Частота : 48, 0 КГц
    Битовая глубина : 16 бит
    Метод сжатия : С потерями
    Размер потока : 404 Мбайт (18%)
    Default : Да
    Forced : Нет

    Скриншоты:


    Онлайн видео Антикиллер 2: Антитеррор (2003) DVDRip


    Размер скачиваемого торрента: 2.18 GB (2335399313 Bytes)

    Антикиллер 2: Антитеррор (2003) DVDRip-AVC от NNMClub
    загрузка...
    Рейтинг →
     (голосов: 1, оценка 5/5, голосовать можно 1 раз )

    Другие торренты по теме:

  • Данил Корецкий - Антикиллер-1: Антикиллер (2016) MP3 скачать торрент бесплатно


    • Комментарии (0):

      Информация

      Информация

        Посетители, находящиеся в группе Гости, не могут оставлять комментарии в данной новости.

        ↓ Меню



        ↓ Опрос

        А Вы добавили сайт в закладки?
        Да
        Не


        Top 10 за неделю (Фильмы)