.
Авторизация | Регистрация
» » Чужая страна / Strangerland (2015) BDRip 1080p от ExKinoRay | P скачать торрент бесплатно




    Чужая страна / Strangerland (2015) BDRip 1080p от ExKinoRay | P скачать торрент бесплатно

    Опубликовал: Админ | Дата: 5-05-2016, 05:00 | Просмотров: 89



    Детально о кино
    Русское название: Чужая страна
    Русское название в мировом прокате: Strangerland
    Создали в: 2015
    Категория жанра: Триллер, драма
    Главный режиссер: Ким Фаррант

    Актеры
    Николь Кидман, Хьюго Уивинг, Джозеф Файнс, Шон Кинэн, Мэддисон Браун, Николас Хэмилтон, Мейн Уайат, Бенедикт Харди, Мартин Дингл Уолл, Тейлор Фергюсон

    Сюжет фильма

    Сюжет фильма о том, как у семейной пары Кэтрин и Мэтью Паркеров исчезли в австралийской пустыне двое детей-подростков, и родители пытаются их найти всеми немыслимыми способами. А вот с чем они столкнутся, пытаясь вернуть своих детей? Возможно их съели динго? Или какая-то тайна тянется из их детства?

    Снималось в: Австралия, Ирландия
    Киностудия: Dragonfly Pictures, Fastnet Films, Worldview Entertainment
    Время просмотра: 01: 51: 46
    Перевод текста: Профессиональный многоголосый (закадровый)
    Файл
    Кодек для видео: MPEG-4
    Качество фильма: BDRip 1080p
    Информация о видео: 1920x800, 13.7 Mbit/s, 23.976 fps
    Информация о звуке:
    Информация о звуке #01: 48 kHz, AC3, 5.1, 640 Kbps | Профессиональный многоголосый (закадровый) |
    Информация о звуке #02: 48 kHz, DTS, 5.1, 1510 kbps | Оригинал |
    Субтитры: Английские
    Релиз подготовил: Автор релиза:

    MI
    Общее
    Уникальный идентификатор : 199677105215432009870094517209207214070 (0x9638695F8DF46830913D4D83216D0FF6)
    Полное имя : F: VideoWellStrangerland.2015.BDRip.1080p.ExKinoRay.mkv
    Формат : Matroska
    Версия формата : Version 4/Version 2
    Размер файла : 12, 4 Гбайт
    Продолжительность : 1 ч. 51 м.
    Общий поток : 15, 9 Мбит/сек
    Название фильма : Strangerland.2015.BDRip.1080p.ExKinoRay.
    Дата кодирования : UTC 2016-05-04 00: 34: 18
    Программа кодирования : mkvmerge v8.3.0 (;Over the Horizon;) 64bit
    Библиотека кодирования : libebml v1.3.1 + libmatroska v1.4.2
    Видео
    Идентификатор : 1
    Формат : AVC
    Формат/Информация : Advanced Video Codec
    Профиль формата : High@L4.1
    Параметр CABAC формата : Да
    Параметр ReFrames формата : 5 кадров
    Идентификатор кодека : V_MPEG4/ISO/AVC
    Продолжительность : 1 ч. 51 м.
    Битрейт : 13, 7 Мбит/сек
    Ширина : 1920 пикселей
    Высота : 800 пикселей
    Соотношение сторон : 2, 40: 1
    Режим частоты кадров : Постоянный
    Частота кадров : 23, 976 (24000/1001) кадра/сек
    Цветовое пространство : YUV
    Субдискретизация насыщенности : 4: 2: 0
    Битовая глубина : 8 бит
    Тип развёртки : Прогрессивная
    Бит/(Пиксели*Кадры) : 0.373
    Размер потока : 10, 7 Гбайт (86%)
    Заголовок : Strangerland.2015.BDRip.1080p.ExKinoRay.***селезень***
    Библиотека кодирования : x264 core 146 r2538 121396c
    Настройки программы : cabac=1/ref=5/deblock=1: -3: -3/analyse=0x3: 0x133/me=umh/subme=10/psy=1/psy_rd=1.05: 0.05/mixed_ref=1/me_range=32/chroma_me=1/trellis=2/8x8dct=1/cqm=0/deadzone=21, 11/fast_pskip=0/chroma_qp_offset=-3/threads=12/lookahead_threads=2/sliced_threads=0/nr=0/decimate=1/interlaced=0/bluray_compat=0/constrained_intra=0/bframes=8/b_pyramid=2/b_adapt=2/b_bias=0/direct=1/weightb=1/open_gop=0/weightp=2/keyint=240/keyint_min=23/scenecut=40/intra_refresh=0/rc_lookahead=120/rc=crf/mbtree=1/crf=15.5/qcomp=0.60/qpmin=0/qpmax=69/qpstep=4/vbv_maxrate=48000/vbv_bufsize=40000/crf_max=0.0/nal_hrd=none/filler=0/ip_ratio=1.40/aq=1: 1.20
    Язык : English
    Default : Да
    Forced : Нет
    Аудио #1
    Идентификатор : 2
    Формат : AC-3
    Формат/Информация : Audio Coding 3
    Расширение режима : CM (complete main)
    Параметр Endianness формата : Big
    Идентификатор кодека : A_AC3
    Продолжительность : 1 ч. 51 м.
    Вид битрейта : Постоянный
    Битрейт : 640 Кбит/сек
    Каналы : 6 каналов
    Расположение каналов : Front: L C R, Side: L R, LFE
    Частота : 48, 0 КГц
    Частота кадров : 31, 250 кадров/сек (1536 spf)
    Метод сжатия : С потерями
    Размер потока : 512 Мбайт (4%)
    Заголовок : MVO
    Язык : Russian
    Default : Да
    Forced : Нет
    Аудио #2
    Идентификатор : 3
    Формат : DTS
    Формат/Информация : Digital Theater Systems
    Режим : 16
    Параметр Endianness формата : Big
    Идентификатор кодека : A_DTS
    Продолжительность : 1 ч. 51 м.
    Вид битрейта : Постоянный
    Битрейт : 1509 Кбит/сек
    Каналы : 6 каналов
    Расположение каналов : Front: L C R, Side: L R, LFE
    Частота : 48, 0 КГц
    Частота кадров : 93, 750 кадра/сек (512 spf)
    Битовая глубина : 24 бит
    Метод сжатия : С потерями
    Размер потока : 1, 18 Гбайт (10%)
    Заголовок : Original
    Язык : English
    Default : Нет
    Forced : Нет
    Текст
    Идентификатор : 4
    Формат : UTF-8
    Идентификатор кодека : S_TEXT/UTF8
    Идентификатор кодека/Информация : UTF-8 Plain Text
    Продолжительность : 1 ч. 47 м.
    Битрейт : 33 бит/сек
    Count of elements : 1132
    Размер потока : 26, 8 Кбайт (0%)
    Язык : English
    Default : Нет
    Forced : Нет
    Меню
    00: 00: 00.000 : en: 00: 00: 00.000
    00: 21: 29.288 : en: 00: 21: 29.288
    00: 38: 05.283 : en: 00: 38: 05.283
    00: 50: 12.927 : en: 00: 50: 12.927
    01: 02: 51.309 : en: 01: 02: 51.309
    01: 15: 53.841 : en: 01: 15: 53.841
    01: 36: 14.185 : en: 01: 36: 14.185
    01: 47: 47.086 : en: 01: 47: 47.086
    Скриншоты


    Онлайн видео Чужая страна


    Размер скачиваемого торрента: 12.39 GB (13301881353 Bytes)

    Чужая страна/Strangerland (2015) BDRip 1080p от ExKinoRay | P
    загрузка...
    Рейтинг →
     (голосов: 1, оценка 3/5, голосовать можно 1 раз )

    Другие торренты по теме:

  • Роберт Хайнлайн - Чужак в чужой стране / Фантастика / 2015 / BIGBAG / MP3 скачать торрент бесплатно
  • Чужая страна / Strangerland (2015) BDRip 720p | Р скачать торрент бесплатно
  • Чужая страна / Strangerland (2015) скачать торрент бесплатно
  • Странная женщина (Чужая женщина) / The Strange Woman / 1946 / АП (Яковлев) / DVDRip скачать торрент бесплатно


    • Комментарии (0):

      Информация

      Информация

        Посетители, находящиеся в группе Гости, не могут оставлять комментарии в данной новости.

        ↓ Меню



        ↓ Опрос

        А Вы добавили сайт в закладки?
        Да
        Не


        Top 10 за неделю (Фильмы)