.
Авторизация | Регистрация
Хочешь лучшие торренты? Добавь свой email!
Добавить
» » Ходячие мертвецы / The Walking Dead (2010-2016) WEB-DLRip от Generalfilm | КПК | LostFilm торрент скачать бесплатно




    Ходячие мертвецы / The Walking Dead (2010-2016) WEB-DLRip от Generalfilm | КПК | LostFilm торрент скачать бесплатно

    Опубликовал: Админ | Дата: 6-05-2016, 05:00 | Просмотров: 52



    Детально о кино
    Русское название: Ходячие мертвецы
    Русское название в мировом прокате: The Walking Dead
    Создали в: 2010
    Категория жанра: Ужасы, триллер, драма
    Главный режиссер: Эрнест Р. Дикерсон, Грег Никотеро, Гай Ферленд

    Актеры
    Эндрю Линкольн, Скотт Уилсон, Данай Джекесай Гурира, Дэвид Моррисси, Стивен Юн, Лорен Коэн, Чендлер Риггз, Норман Ридус, Мелисса Сюзанн МакБрайд, Эмили Кинни, Чад Коулмэн, Сонеква Мартин

    Сюжет фильма

    Сериал рассказывает историю жизни семьи шерифа после того, как зомби — эпидемия апокалипсических масштабов захлестнула земной шар. Шериф Рик Грайм путешествует со своей семьей и небольшой группой выживших в поисках безопасного места для жизни. Но постоянный страх смерти каждый день приносит тяжелые потери, заставляя героев почувствовать глубины человеческой жестокости.

    Снималось в: США
    Киностудия: American Movie Classics (AMC), Circle of Confusion, Valhalla Motion Pictures
    Время просмотра: 83 x ~ 00: 48: 00
    Перевод текста: Профессиональный (многоголосый, закадровый) LostFilm
    Файл
    Тип видео: MP4
    Качество фильма: WEB-DLRip | КПК
    Информация о видео: MPEG-4 AVC (x264), 640x360, ~500 kbps, 23.976 fps
    Информация о звуке: AAC LC, 44.1 KHz, 2 ch, 128 Kbps
    Субтитры: Нет
    Семпл
    Скриншоты

    MI
    Complete name : E: KinoHodjachie.Mertvecy.AVC.WEB-DLRip.KPK.LF.GeneralfilmHodjachie.Mertvecy.S05.2014-2015.AVC.WEB-DLRip.KPK.LF.GeneralfilmHodjachie.Mertvecy.s05e09.2015.AVC.WEB-DLRip.KPK.LF.Generalfilm.mp4
    Format : MPEG-4
    Format profile : Base Media
    Codec ID : isom
    File size : 195 MiB
    Duration : 43mn 13s
    Overall bit rate mode : Variable
    Overall bit rate : 632 Kbps
    Encoded date : UTC 2015-04-03 08: 19: 53
    Tagged date : UTC 2015-04-03 08: 19: 53
    Video
    ID : 1
    Format : AVC
    Format/Info : Advanced Video Codec
    Format profile : High@L4.1
    Format settings, CABAC : Yes
    Format settings, ReFrames : 8 frames
    Codec ID : avc1
    Codec ID/Info : Advanced Video Coding
    Duration : 43mn 13s
    Bit rate : 500 Kbps
    Maximum bit rate : 3 665 Kbps
    Width : 640 pixels
    Height : 360 pixels
    Display aspect ratio : 16: 9
    Frame rate mode : Constant
    Frame rate : 23.976 fps
    Color space : YUV
    Chroma subsampling : 4: 2: 0
    Bit depth : 8 bits
    Scan type : Progressive
    Bits/(Pixel*Frame) : 0.091
    Stream size : 155 MiB (79%)
    Writing library : x264 core 130 r2273 b3065e6
    Encoding settings : cabac=1/ref=8/deblock=1: -2: -2/analyse=0x3: 0x133/me=umh/subme=10/psy=1/psy_rd=1.00: 0.00/mixed_ref=1/me_range=24/chroma_me=1/trellis=2/8x8dct=1/cqm=0/deadzone=21, 11/fast_pskip=1/chroma_qp_offset=-2/threads=12/lookahead_threads=2/sliced_threads=0/nr=0/decimate=0/interlaced=0/bluray_compat=0/constrained_intra=0/bframes=8/b_pyramid=2/b_adapt=2/b_bias=0/direct=3/weightb=1/open_gop=0/weightp=2/keyint=240/keyint_min=121/scenecut=40/intra_refresh=0/rc_lookahead=40/rc=2pass/mbtree=1/bitrate=500/ratetol=1.0/qcomp=0.60/qpmin=0/qpmax=69/qpstep=4/cplxblur=20.0/qblur=0.5/ip_ratio=1.40/aq=1: 1.00
    Encoded date : UTC 2015-04-03 08: 19: 53
    Tagged date : UTC 2015-04-03 08: 19: 57
    Audio
    ID : 2
    Format : AAC
    Format/Info : Advanced Audio Codec
    Format profile : LC
    Codec ID : 40
    Duration : 43mn 13s
    Bit rate mode : Variable
    Bit rate : 128 Kbps
    Maximum bit rate : 151 Kbps
    Channel(s) : 2 channels
    Channel positions : Front: L R
    Sampling rate : 48.0 KHz
    Compression mode : Lossy
    Stream size : 39.5 MiB (20%)
    Encoded date : UTC 2015-04-03 08: 19: 56
    Tagged date : UTC 2015-04-03 08: 19: 57

    Релиз подготовил:
    Залил: toys_watch

    Онлайн видео Ходячие мертвецы


    Размер скачиваемого торрента: 16.42 GB (17634726920 Bytes)

    Ходячие мертвецы/The Walking Dead (2010-2016) WEB-DLRip от Generalfilm | КПК | LostFilm
    загрузка...
    Рейтинг →
     (голосов: 1, оценка 3/5, голосовать можно 1 раз )

    Другие торренты по теме:

  • Ходячие мертвецы / The Walking Dead (2012) WEB-DLRip-AVC | Fox Crime, LostFilm, Кубик в Кубе
  • Ходячие мертвецы / The Walking Dead (2011) BDRip от HQ-ViDEO
  • OST - Ходячие мертвецы / The Walking Dead (2010 - 2013) MP3
  • Ходячие Мертвецы / The Walking Dead (2013) HDTVRip-AVC | Трейлер
  • Ходячие Мертвецы / The Walking Dead (2013) HDTV 720p скачать через торрент бесплатно
  • Ходячие Мертвецы / The Walking Dead (Webisodes) Season 3 (2013) BDRip 1080p скачать через торрент бесплатно
  • Ходячие мертвецы / The Walking Dead (2012-2013) WEB-DLRip-AVC 1080p l Fox Crime скачать через торрент бесплатно
  • Ходячие мертвецы / The Walking Dead (2013) WEB-DLRip от Scarabey | LostFilm скачать через торрент бесплатно


    • Комментарии (0):

      Информация

      Информация

        Посетители, находящиеся в группе Гости, не могут оставлять комментарии в данной новости.

        ↓ Меню



        ↓ Опрос

        А Вы добавили сайт в закладки?
        Да
        Не


        Top 10 за месяц (Фильмы)