.
Авторизация | Регистрация
» » Осведомитель / Gibraltar (2013) HDRip от MegaPeer | Р скачать торрент бесплатно




    Осведомитель / Gibraltar (2013) HDRip от MegaPeer | Р скачать торрент бесплатно

    Опубликовал: Админ | Дата: 6-05-2016, 05:01 | Просмотров: 67



    Детально о кино
    Русское название: Осведомитель
    Русское название в мировом прокате: Gibraltar
    Создали в: 2013
    Категория жанра: Триллер, криминал
    Главный режиссер: Жюльен Леклерк

    Актеры
    Жиль Леллуш, Тахар Рахим, Риккардо Скамарчио, Рафаэль Агоге, Мелани Бернье, Филипп Наон, Эйдан Дивайн, Власта Врана

    Сюжет фильма

    Невероятная история обычного француза Марка Фьеве, который подрабатывал таможенным информатором в Гибралтаре. Неожиданно он оказался втянутым в политическую интригу и незаконную торговлю наркотиками…

    Снималось в: ФранцияКанада
    Киностудия: Canal+ fr, Cool Industrie, Jouror Distribution, M6 Films, Nexus Factory, SND, Transfilm, uFilm, uMedia Family
    Время просмотра: 01: 52: 54
    Перевод текста: Профессиональный (многоголосый, закадровый) | Официальный звук
    Файл
    Тип видео: AVI
    Качество фильма: HDRip
    Информация о видео: XviD, 688x288, 24 fps, 763 kbps
    Информация о звуке: MP3, 2 ch, ~128 kbps
    Релиз:
    Скриншоты

    MediaInfo:
    Общее
    Полное имя : Gibraltar.2013.HDRip.754MB.MegaPeer.avi
    Формат : AVI
    Формат/Информация : Audio Video Interleave
    Размер файла : 746 Мбайт
    Продолжительность : 1 ч. 55 м.
    Общий поток : 900 Кбит/сек
    Программа кодирования : VirtualDubMod 1.5.10.3 | www.virtualdub-fr.org || (build 2550/release)
    Библиотека кодирования : VirtualDubMod build 2550/release
    Видео
    Идентификатор : 0
    Формат : MPEG-4 Visual
    Профиль формата : Advanced Simple@L5
    Параметр BVOP формата : 1
    Параметр QPel формата : Нет
    Параметр GMC формата : Без точки перехода
    Параметр матрицы формата : Выборочная
    Идентификатор кодека : XVID
    Идентификатор кодека/Подсказка : XviD
    Продолжительность : 1 ч. 55 м.
    Битрейт : 763 Кбит/сек
    Ширина : 688 пикселей
    Высота : 288 пикселей
    Соотношение сторон : 2, 40: 1
    Частота кадров : 24, 000 кадра/сек
    Цветовое пространство : YUV
    Субдискретизация насыщенности : 4: 2: 0
    Битовая глубина : 8 бит
    Тип развёртки : Прогрессивная
    Метод сжатия : С потерями
    Бит/(Пиксели*Кадры) : 0.160
    Размер потока : 632 Мбайт (85%)
    Библиотека кодирования : XviD 73
    Аудио
    Идентификатор : 1
    Формат : MPEG Audio
    Версия формата : Version 1
    Профиль формата : Layer 3
    Идентификатор кодека : 55
    Идентификатор кодека/Подсказка : MP3
    Продолжительность : 1 ч. 55 м.
    Вид битрейта : Постоянный
    Битрейт : 128 Кбит/сек
    Каналы : 2 канала
    Частота : 48, 0 КГц
    Метод сжатия : С потерями
    Размер потока : 106 Мбайт (14%)
    Выравнивание : Соединение по промежуткам
    Продолжительность промежутка : 42 мс. (1, 00 видеокадр)
    Время предзагрузки промежутка : 504 мс.
    Библиотека кодирования : LAME3.99r
    Залил: ukollov

    Онлайн видео Осведомитель


    Размер скачиваемого торрента: 745.89 MB (782125056 Bytes)


    Осведомитель/Gibraltar (2013) HDRip от MegaPeer | Р
    загрузка...
    Рейтинг →
     (голосов: 1, оценка 5/5, голосовать можно 1 раз )

    Другие торренты по теме:

  • Осведомитель / Gibraltar (2013) BDRip 720p | Р скачать торрент бесплатно


    • Комментарии (0):

      Информация

      Информация

        Посетители, находящиеся в группе Гости, не могут оставлять комментарии в данной новости.

        ↓ Меню



        ↓ Опрос

        А Вы добавили сайт в закладки?
        Да
        Не


        Top 10 за неделю (Фильмы)